<?xml version="1.0" standalone="no"?>
<!DOCTYPE svg PUBLIC "-//W3C//DTD SVG 1.1//EN" "http://www.w3.org/Graphics/SVG/1.1/DTD/svg11.dtd" >
<svg>
<metadata>
Created by FontForge 20110222 at Sat Jan  3 17:57:23 2015
 By www-data
Copyright (c) 2010, 2011, 2013 by Daniel Johnson. Licensed under the terms of the SIL Open Font License.
</metadata>
<defs>
<font id="TriodPostnaja" horiz-adv-x="0" >
  <font-face 
    font-family="TriodPostnaja"
    font-weight="500"
    font-stretch="normal"
    units-per-em="1024"
    panose-1="2 0 6 3 0 0 0 0 0 0"
    ascent="819"
    descent="-205"
    x-height="512"
    cap-height="717"
    bbox="-499 -309 1278 1171"
    underline-thickness="51"
    underline-position="-102"
    unicode-range="U+0020-E5E0"
  />
<missing-glyph horiz-adv-x="374" 
d="M34 0v682h272v-682h-272zM68 34h204v614h-204v-614z" />
    <glyph glyph-name=".notdef" horiz-adv-x="374" 
d="M34 0v682h272v-682h-272zM68 34h204v614h-204v-614z" />
    <glyph glyph-name=".null" 
 />
    <glyph glyph-name="nonmarkingreturn" horiz-adv-x="341" 
 />
    <glyph glyph-name="space" unicode=" " horiz-adv-x="307" 
 />
    <glyph glyph-name="exclam" unicode="!" horiz-adv-x="268" 
d="M80 717h111l-20 -553h-71zM100 0q-10 0 -10 10v72q0 10 10 10h71q10 0 10 -10v-72q0 -10 -10 -10h-71z" />
    <glyph glyph-name="quotedbl" unicode="&#x22;" horiz-adv-x="352" 
d="M57 717h86l-20 -205h-45zM209 717h86l-21 -205h-45z" />
    <glyph glyph-name="numbersign" unicode="#" horiz-adv-x="443" 
d="M178 717h43l-22 -164h100l23 164h43l-23 -164h51v-104h-65l-25 -181h51v-104h-65l-23 -164h-43l23 164h-101l-22 -164h-43l22 164h-51v104h66l24 181h-51v104h66zM160 268h100l25 181h-101z" />
    <glyph glyph-name="dollar" unicode="$" horiz-adv-x="570" 
d="M266 702h39v-73q88 -4 130 -56t42 -119q0 -14 -49 -14q-20 0 -36.5 4t-16.5 10q0 140 -70 150v-242q108 0 156.5 -44.5t48.5 -117.5q0 -93 -49 -151.5t-132 -58.5q-13 0 -24 3v-65h-39v85q-3 2 -13 9q-11 8 -15 10l-13 8q-9 5 -17 6.5t-17 1.5t-36 -35t-39 -35
q-20 0 -42.5 22t-22.5 48q0 12 27 46.5t46 34.5q18 0 38.5 -9.5t34 -19.5t36.5 -29t33 -27v295q-78 4 -120.5 42t-42.5 95q0 80 40.5 114t122.5 38v74zM266 371v230q-60 -22 -60 -126q0 -32 15.5 -61.5t44.5 -42.5zM305 337v-317q15 -6 30 -6q29 0 51 47.5t22 115.5
q0 145 -103 160z" />
    <glyph glyph-name="percent" unicode="%" horiz-adv-x="776" 
d="M604 657l50 -18l-504 -580l-51 19zM125 502q0 -49 18.5 -83t44.5 -34t45 34t19 83t-19 82.5t-45 33.5t-44.5 -33.5t-18.5 -82.5zM45 502q0 59 42 101t101 42t101.5 -42t42.5 -101t-42.5 -101.5t-101.5 -42.5t-101 42.5t-42 101.5zM524 215q0 -49 19 -83t45 -34t44.5 34
t18.5 83t-18.5 83t-44.5 34t-45 -34t-19 -83zM444 215q0 59 42.5 101t101.5 42t101 -42t42 -101t-42 -101t-101 -42t-101.5 42t-42.5 101z" />
    <glyph glyph-name="ampersand" unicode="&#x26;" horiz-adv-x="569" 
d="M271 248q-64 0 -90 -30.5t-26 -85.5q0 -56 20 -86.5t50 -30.5q33 0 59.5 11.5t42.5 26t45 26t66 11.5q20 0 44 -19.5t24 -32.5q0 -22 -22.5 -40t-42.5 -18q-12 0 -37 25.5t-34 25.5q-14 0 -25.5 -4.5t-25.5 -13t-24 -12.5v-73h-47v63q-2 0 -8 -0.5t-9 -0.5
q-179 0 -179 140q0 97 123 133q-43 13 -66.5 46.5t-23.5 73.5q0 132 163 140v61h47v-61q84 -6 124.5 -52t40.5 -107q0 -12 -52 -12q-51 0 -51 12q0 74 -20 105t-66 31q-39 0 -61.5 -25.5t-22.5 -76.5q0 -49 24 -84.5t73 -35.5q28 0 46.5 3.5t26.5 7t11 3.5q9 0 24 -11
t15 -17t-15.5 -18.5t-21.5 -12.5t-32.5 7.5t-66.5 7.5z" />
    <glyph glyph-name="quotesingle" unicode="'" horiz-adv-x="200" 
d="M57 717h86l-20 -205h-45z" />
    <glyph glyph-name="parenleft" unicode="(" horiz-adv-x="345" 
d="M285 702q-41 0 -74 -97.5t-33 -246.5q0 -150 33 -247t74 -97v-24q-93 0 -156 104.5t-63 263.5t63 264t156 105v-25z" />
    <glyph glyph-name="parenright" unicode=")" horiz-adv-x="342" 
d="M56 14q41 0 74 97.5t33 246.5q0 150 -33 247t-74 97v25q93 0 156 -105t63 -264t-63 -263.5t-156 -104.5v24z" />
    <glyph glyph-name="asterisk" unicode="*" horiz-adv-x="565" 
d="M45 513l27 82l188 -83l-20 205h86l-21 -205l189 83l26 -82l-201 -44l137 -154l-70 -50l-103 177l-104 -177l-69 50l136 154z" />
    <glyph glyph-name="plus" unicode="+" horiz-adv-x="413" 
d="M227 326v-128h-55v128h-128v55h128v128h55v-128h128v-55h-128z" />
    <glyph glyph-name="comma" unicode="," horiz-adv-x="192" 
d="M146 72q0 -50 -17.5 -98t-31.5 -68t-25 -31h-25q23 51 23 91q0 12 -12.5 52t-12.5 74q0 10 10 10h81q10 0 10 -10v-20z" />
    <glyph glyph-name="hyphen" unicode="-" horiz-adv-x="359" 
d="M33 381h270v-55h-270v55z" />
    <glyph glyph-name="period" unicode="." horiz-adv-x="191" 
d="M55 0q-10 0 -10 10v82q0 10 10 10h81q10 0 10 -10v-82q0 -10 -10 -10h-81z" />
    <glyph glyph-name="slash" unicode="/" horiz-adv-x="428" 
d="M314 717h54l-277 -717h-53z" />
    <glyph glyph-name="zero" unicode="0" horiz-adv-x="662" 
d="M330 703q-43 0 -71 -23.5t-42 -72t-19.5 -106.5t-5.5 -143q0 -68 3 -117t12 -94t24 -73t40 -44t59 -16q42 0 70 23.5t42.5 72t20 106.5t5.5 143t-5.5 143.5t-20 106.5t-42.5 71t-70 23zM330 728q134 0 200 -100.5t66 -269.5t-66 -268.5t-200 -99.5t-200 100t-66 269
t66 269t200 100z" />
    <glyph glyph-name="one" unicode="1" horiz-adv-x="379" 
d="M254 717v-629q0 -44 11 -54t60 -10v-24h-264v24q49 0 60 10t11 54v540q0 44 -11 54.5t-60 10.5v24h193z" />
    <glyph glyph-name="two" unicode="2" horiz-adv-x="611" 
d="M542 0h-463v115q0 60 11.5 103t31.5 67t45.5 39.5t53.5 23t56 14t53.5 16.5t45.5 27.5t31.5 50t11.5 80.5q0 70 -31 118t-77 48q-57 0 -83 -45t-26 -145q0 -14 -62 -14q-60 0 -60 14q0 40 12.5 77t38 68.5t72 50.5t108.5 19q111 0 170 -55.5t59 -156.5q0 -52 -11.5 -86
t-31 -50t-45 -24t-54 -11t-56.5 -7.5t-53.5 -18.5t-45 -39t-31 -72.5t-11.5 -116.5v-65h141q44 0 83 54t39 103h24q0 -38 14 -78q12 -39 26 -59l14 -20v-25z" />
    <glyph glyph-name="three" unicode="3" horiz-adv-x="644" 
d="M312 378q-50 0 -83 -13t-40 -13q-8 0 -27 17t-19 24q0 8 18.5 22.5t30.5 14.5q3 0 13.5 -6t33.5 -12t58 -6q61 0 92 45t31 108q0 67 -29.5 105t-77.5 38q-57 0 -83.5 -45.5t-26.5 -144.5q0 -14 -61 -14t-61 14q0 40 12.5 77t38.5 68.5t72.5 50.5t108.5 19
q115 0 171.5 -45t56.5 -143q0 -111 -109 -147q78 -24 114 -79.5t36 -122.5q0 -100 -56.5 -150t-163.5 -50q-47 0 -81 21.5t-67 21.5q-12 0 -42.5 -29t-45.5 -29q-25 0 -52.5 24.5t-27.5 53.5q0 12 30 41t54 29t51.5 -16t50 -34.5t59.5 -34.5t79 -16q37 0 63.5 47.5
t26.5 123.5q0 78 -35 131.5t-113 53.5z" />
    <glyph glyph-name="four" unicode="4" horiz-adv-x="626" 
d="M50 215q0 2 10 35t24 86t28 114.5t24 134t10 132.5h125q0 -145 -86 -489h186v489h122v-489h50v-24h-50v-116q0 -44 10.5 -54t59.5 -10v-24h-263v24q49 0 60 10t11 54v116h-304q-17 0 -17 11z" />
    <glyph glyph-name="five" unicode="5" horiz-adv-x="672" 
d="M224 692v-251h123q69 0 120 -20.5t78.5 -54t40 -70t12.5 -76.5q0 -104 -58 -167t-162 -63q-48 0 -82 21.5t-66 21.5q-12 0 -42.5 -29t-45.5 -29q-25 0 -52.5 24.5t-27.5 53.5q0 12 30 41t54 29t51.5 -16t50 -34.5t59.5 -34.5t79 -16q36 0 63 49t27 125q0 38 -7.5 73.5
t-24.5 69.5t-50 54.5t-78 20.5h-213v303h478v-25q-6 -8 -15 -22t-24 -55.5t-15 -79.5h-24q0 54 -34 105.5t-88 51.5h-157z" />
    <glyph glyph-name="six" unicode="6" horiz-adv-x="640" 
d="M323 419q121 0 183 -60.5t62 -154.5t-62 -154t-183 -60t-184 60.5t-63 154.5q0 260 105.5 391t325.5 131v-25q-132 0 -203 -74.5t-94 -227.5q55 19 113 19zM198 204q0 -96 25.5 -143t99.5 -47q73 0 98 47.5t25 143.5t-25 142.5t-98 46.5t-99 -47t-26 -143z" />
    <glyph glyph-name="seven" unicode="7" horiz-adv-x="550" 
d="M490 717v-25h-1l-107 -309h61v-25h-69l-124 -358h-139l127 358h-68v25h76l109 309h-128q-54 0 -88 -51.5t-34 -105.5h-24q0 38 -13 77q-12 40 -26 60l-14 20v25h462z" />
    <glyph glyph-name="eight" unicode="8" horiz-adv-x="618" 
d="M313 727q110 0 170.5 -47t60.5 -120q0 -54 -34.5 -94.5t-99.5 -58.5q74 -22 111.5 -76.5t37.5 -126.5q0 -93 -62.5 -153.5t-183.5 -60.5t-183.5 60.5t-62.5 154.5q0 71 38 125.5t112 76.5q-66 18 -100.5 58.5t-34.5 95.5q0 73 60.5 119.5t170.5 46.5zM313 702
q-67 0 -88 -33t-21 -109t21 -108.5t88 -32.5q66 0 87.5 33t21.5 109t-21.5 108.5t-87.5 32.5zM313 394q-73 0 -99 -47t-26 -143t25.5 -143t99.5 -47q73 0 98.5 47.5t25.5 143.5t-25.5 142.5t-98.5 46.5z" />
    <glyph glyph-name="nine" unicode="9" horiz-adv-x="601" 
d="M301 298q-121 0 -183.5 60.5t-62.5 154.5q0 93 62.5 153.5t183.5 60.5t184 -60.5t63 -154.5q0 -260 -105.5 -391t-325.5 -131v24q132 0 203 74.5t94 227.5q-52 -18 -113 -18zM426 513q0 96 -25.5 142.5t-99.5 46.5q-73 0 -98.5 -47t-25.5 -143t25.5 -142.5t98.5 -46.5
t99 47t26 143z" />
    <glyph glyph-name="colon" unicode=":" horiz-adv-x="221" 
d="M55 20q-10 0 -10 10v82q0 10 10 10h81q10 0 10 -10v-82q0 -10 -10 -10h-81zM55 307q-10 0 -10 10v82q0 10 10 10h81q10 0 10 -10v-82q0 -10 -10 -10h-81z" />
    <glyph glyph-name="semicolon" unicode=";" horiz-adv-x="227" 
d="M146 92q0 -50 -17.5 -98t-31.5 -68t-25 -31h-25q23 51 23 91q0 12 -12.5 52t-12.5 74q0 10 10 10h81q10 0 10 -10v-20zM55 307q-10 0 -10 10v82q0 10 10 10h81q10 0 10 -10v-82q0 -10 -10 -10h-81z" />
    <glyph glyph-name="less" unicode="&#x3c;" horiz-adv-x="347" 
d="M306 92l-58 -57l-207 241l207 242l58 -57l-214 -185z" />
    <glyph glyph-name="equal" unicode="=" horiz-adv-x="504" 
d="M52 319h391v-55h-391v55zM52 453h391v-56h-391v56z" />
    <glyph glyph-name="greater" unicode="&#x3e;" horiz-adv-x="347" 
d="M41 461l58 57l207 -242l-207 -241l-58 57l214 184z" />
    <glyph glyph-name="question" unicode="?" horiz-adv-x="486" 
d="M151 0q-4 0 -7.5 3t-3.5 7v72q0 4 3.5 7t7.5 3h70q10 0 10 -10v-72q0 -10 -10 -10h-70zM126 181q0 85 29 135t112 100q46 28 46 150q0 56 -20 96t-56 40q-45 0 -64 -28t-19 -92q0 -12 -54 -12q-49 0 -49 12q0 59 45.5 102t140.5 43q91 0 144.5 -43t53.5 -117
q0 -81 -113 -151q-45 -29 -60 -77.5t-15 -157.5h-121z" />
    <glyph glyph-name="at" unicode="@" horiz-adv-x="823" 
d="M474 -10h-51q-152 0 -259.5 92t-107.5 223q0 93 55 166t137.5 109t174.5 36q142 0 243 -85t101 -226q0 -38 -3 -66.5t-14 -59.5t-29.5 -51t-51.5 -33t-79 -13q-70 0 -98 19.5t-35 52.5l-10 43q-48 -52 -125 -52q-46 0 -65 24.5t-19 56.5q0 91 161 209l-15 77h68
q15 0 18 -12l70 -346q8 -48 54 -48q39 0 54 50t15 149q0 110 -66 198.5t-174 88.5q-109 0 -185.5 -90t-76.5 -197q0 -121 77 -206t185 -85h51v-24zM441 227l-38 189q-89 -67 -89 -137q0 -28 16 -53.5t49 -25.5q41 0 62 27z" />
    <glyph glyph-name="A" unicode="A" horiz-adv-x="661" 
d="M529 88q0 -44 11 -54t60 -10v-24h-263v24q49 0 60 10t11 54v289q-79 -115 -181 -115q39 -26 39 -73q0 -56 -52 -79v-8q0 -44 19 -61t64 -17v-24h-236v24q45 0 63.5 17t18.5 61v7q-24 10 -39 31.5t-15 48.5q0 29 18 52.5t45 31.5q-65 23 -65 97q0 51 35.5 100.5t92.5 88
t101.5 62t89.5 42.5q-3 20 -16.5 25t-52.5 5v24h263v-24q-49 0 -60 -10.5t-11 -54.5v-540zM408 424v204v4q-31 -12 -60 -28.5t-64.5 -43t-57 -63.5t-21.5 -79q0 -94 80 -94q52 0 123 100z" />
    <glyph glyph-name="B" unicode="B" horiz-adv-x="683" 
d="M132 88v541q0 44 -11 54t-60 10v24h562v-24q-49 0 -60 -10t-11 -54v-167q-112 0 -180 -19.5t-118 -74.5v-9q50 -55 118 -74.5t180 -19.5v-177q0 -44 11 -54t60 -10v-24h-562v24q49 0 60 10t11 54zM430 241q-109 13 -176 69v-222q0 -44 11 -54t60 -10h34q49 0 60 10t11 54
v153zM254 417q67 56 176 69v143q0 44 -11 54t-60 10h-34q-49 0 -60 -10t-11 -54v-212z" />
    <glyph glyph-name="C" unicode="C" horiz-adv-x="701" 
d="M182 358q0 -86 5.5 -143.5t19.5 -106t42 -71.5t70 -23q70 0 101 45.5t31 135.5q0 44 -11 54.5t-60 10.5v24h263v-24q-10 0 -17.5 -0.5t-14 -0.5t-10.5 -2t-7.5 -3t-6 -5t-4 -6t-3 -8.5t-2.5 -10t-3 -13.5t-3 -16q-23 -108 -79 -156.5t-176 -48.5q-134 0 -198.5 99.5
t-64.5 269.5q0 169 64.5 269t198.5 100q121 0 177.5 -49t77.5 -156q9 -46 14 -53q10 -12 57 -12v-24h-263v24q49 0 60 10.5t11 54.5q0 90 -31 135t-101 45q-42 0 -70 -23.5t-42 -72t-19.5 -106.5t-5.5 -143z" />
    <glyph glyph-name="D" unicode="D" horiz-adv-x="693" 
d="M254 628v-540q0 -44 11 -53.5t60 -9.5q78 0 126 88.5t48 227.5q0 169 -47 260t-127 91q-49 0 -60 -10t-11 -54zM325 717q162 0 232 -93.5t70 -282.5q0 -170 -70.5 -255.5t-231.5 -85.5h-264v24q49 0 60 10t11 54v540q0 44 -11 54.5t-60 10.5v24h264z" />
    <glyph glyph-name="E" unicode="E" horiz-adv-x="720" 
d="M574 128q-16 -30 -24 -44t-27.5 -36t-41 -32t-58 -18t-84.5 -8q-135 0 -204 100.5t-69 268.5q0 167 69 268t204 101q48 0 84.5 -8t58.5 -18.5t41 -31.5t28 -36.5t24 -44.5q22 -44 79 -44v-24h-263v24q50 0 65.5 11t15.5 33q0 42 -33.5 78t-97.5 36q-74 0 -107.5 -72
t-38.5 -209q59 48 137 48q105 0 151 -19.5t72 -73.5q7 -16 10.5 -21.5t13.5 -19.5t25 -20t35 -6v-23h-263v23q38 0 57.5 7t23.5 15.5t4 24.5q0 28 -29 57t-98 29q-78 0 -140 -60v-25q0 -170 32.5 -257t114.5 -87q64 0 97.5 36t33.5 78q0 23 -15.5 34t-65.5 11v24h263v-24
q-58 0 -80 -45z" />
    <glyph glyph-name="F" unicode="F" horiz-adv-x="584" 
d="M325 0h-264v24q49 0 60 10t11 54v539q0 44 -11 54.5t-60 10.5v25h463v-25q-6 -8 -15 -22t-23.5 -55.5t-14.5 -79.5h-25q0 54 -33.5 105.5t-87.5 51.5q-49 0 -60 -10.5t-11 -54.5v-256h199v-25h-199v-258q0 -44 11 -54t60 -10v-24z" />
    <glyph glyph-name="G" unicode="G" horiz-adv-x="691" 
d="M451 523q0 90 -31 135t-101 45q-42 0 -70 -23.5t-42 -72t-19.5 -106.5t-5.5 -143q0 -86 5.5 -143.5t19.5 -106t42 -71.5t70 -23q70 0 101 45.5t31 135.5q0 44 -11 54.5t-60 10.5v24h263v-24q-10 0 -17.5 -0.5t-14 -0.5t-10.5 -2t-7.5 -3t-6 -5t-4 -6t-3 -8.5t-2.5 -10
t-3 -13.5t-3 -16q-23 -108 -79 -156.5t-176 -48.5q-134 0 -198.5 99.5t-64.5 269.5q0 169 64.5 269t198.5 100q121 0 177.5 -49t77.5 -156h-121z" />
    <glyph glyph-name="H" unicode="H" horiz-adv-x="710" 
d="M579 88q0 -44 10.5 -54t59.5 -10v-24h-263v24q49 0 60 10t11 54v259h-203v-259q0 -44 11 -54t60 -10v-24h-264v24q49 0 60 10t11 54v540q0 44 -11 54.5t-60 10.5v24h264v-24q-49 0 -60 -10.5t-11 -54.5v-256h203v256q0 44 -11 54.5t-60 10.5v24h263v-24q-48 0 -59 -10
t-11 -55v-540z" />
    <glyph glyph-name="I" unicode="I" horiz-adv-x="386" 
d="M254 88q0 -44 11 -54t60 -10v-24h-264v24q49 0 60 10t11 54v540q0 44 -11 54.5t-60 10.5v24h264v-24q-49 0 -60 -10.5t-11 -54.5v-540z" />
    <glyph glyph-name="J" unicode="J" horiz-adv-x="696" 
d="M443 628q0 45 -11 55t-59 10v24h263v-24q-49 0 -60 -10.5t-11 -54.5v-290q0 -100 -8.5 -161.5t-33 -106t-68.5 -62.5t-114 -18q-106 0 -162 50t-77 155q-1 6 -3 16t-2.5 13.5t-2 10t-3 8.5t-4 6t-6 5t-7.5 3t-10.5 2t-14 0.5t-17.5 0.5v24h247v-24q-34 0 -44.5 -11
t-10.5 -54q0 -181 115 -181q65 0 84.5 59.5t19.5 216.5v338z" />
    <glyph glyph-name="K" unicode="K" horiz-adv-x="709" 
d="M132 628q0 44 -11 54.5t-60 10.5v24h264v-24q-49 0 -60 -10.5t-11 -54.5v-257h8q91 0 143 80t52 177q0 44 -11 54.5t-60 10.5v24h263v-24q-10 0 -17.5 -0.5t-14 -0.5t-10.5 -2t-7.5 -3t-6 -5t-4 -6t-3 -8.5t-2 -10t-2.5 -13.5t-3 -16q-9 -48 -22.5 -86t-37 -76.5
t-62.5 -66t-91 -41.5q52 -14 91 -41.5t62.5 -65.5t37 -76t22.5 -86q1 -6 3 -16t2.5 -13.5t2 -10t3 -8.5t4 -6t6 -5t7.5 -3t10.5 -2t14 -0.5t17.5 -0.5v-24h-263v24q49 0 60 10.5t11 54.5q0 97 -52 177t-143 80h-8v-258q0 -44 11 -54t60 -10v-24h-264v24q49 0 60 10t11 54
v540z" />
    <glyph glyph-name="L" unicode="L" horiz-adv-x="562" 
d="M325 717v-24q-49 0 -60 -10t-11 -54v-539q0 -44 11 -54.5t60 -10.5q54 0 87.5 51.5t33.5 105.5h25q0 -38 13.5 -77.5t26.5 -59.5l13 -20v-25h-463v25q49 0 60 10.5t11 54.5v539q0 44 -11 54t-60 10v24h264z" />
    <glyph glyph-name="M" unicode="M" horiz-adv-x="999" 
d="M552 88q6 -45 16.5 -54.5t58.5 -9.5v-24h-263v24q41 0 54.5 6t13.5 30q0 17 -2 28l-61 467q-21 -22 -41.5 -54.5t-45.5 -88t-40 -140t-15 -184.5q0 -44 11 -54t60 -10v-24h-263v24q49 0 59.5 10t10.5 54q0 114 16 176.5t68 134.5t175 196l-5 33q-6 46 -16.5 55.5
t-57.5 9.5v24h263v-24q-43 0 -55.5 -7t-12.5 -35q0 -14 1 -23l34 -259q56 116 179 214l-6 45q-6 45 -16.5 55t-58.5 10v24h264v-24q-43 0 -55.5 -7t-12.5 -35q0 -14 1 -23l71 -540q6 -45 16 -54.5t58 -9.5v-24h-263v24q42 0 55.5 6t13.5 30q0 17 -2 28l-60 454
q-125 -110 -169 -291z" />
    <glyph glyph-name="N" unicode="N" horiz-adv-x="710" 
d="M579 88q0 -44 10.5 -54t59.5 -10v-24h-263v24q49 0 60 10t11 54v130l-203 243v-373q0 -44 11 -54t60 -10v-24h-264v24q49 0 60 10t11 54v540q0 44 -11 54.5t-60 10.5v24h264v-24q-49 0 -60 -10.5t-11 -54.5v-118l203 -241v359q0 44 -11 54.5t-60 10.5v24h263v-24
q-48 0 -59 -10t-11 -55v-540z" />
    <glyph glyph-name="O" unicode="O" horiz-adv-x="633" 
d="M317 703q-43 0 -71 -23.5t-42 -72t-19.5 -106.5t-5.5 -143q0 -68 3 -117t12 -94t24 -73t40 -44t59 -16q42 0 70 23.5t42.5 72t20 106.5t5.5 143t-5.5 143.5t-20 106.5t-42.5 71t-70 23zM317 728q134 0 200 -100.5t66 -269.5t-66 -268.5t-200 -99.5t-200 100t-66 269
t66 269t200 100z" />
    <glyph glyph-name="P" unicode="P" horiz-adv-x="591" 
d="M254 336v-248q0 -44 11 -54t60 -10v-24h-264v24q49 0 60 10t11 54v364q0 275 212 275q113 0 160 -47.5t47 -147.5q0 -102 -47.5 -155.5t-159.5 -53.5q-51 0 -90 13zM254 525q0 -94 20.5 -136t69.5 -42q85 0 85 185q0 91 -20.5 130.5t-64.5 39.5q-43 0 -66.5 -38
t-23.5 -139z" />
    <glyph glyph-name="Q" unicode="Q" horiz-adv-x="677" 
d="M331 728q134 0 199.5 -100t65.5 -270q0 -152 -53 -248.5t-163 -115.5q1 -26 9 -52t18 -26q23 0 41.5 11.5t30.5 26t32.5 26t45.5 11.5q20 0 44 -19.5t24 -32.5q0 -22 -22.5 -40.5t-42.5 -18.5q-12 0 -37.5 25.5t-34.5 25.5t-32 -20.5t-40 -20.5q-134 0 -138 104
q-108 20 -160.5 116.5t-52.5 248.5q0 169 66 269t200 100zM331 703q-43 0 -71 -23.5t-42 -72t-19.5 -106.5t-5.5 -143q0 -68 3 -117t12 -94t24 -73t40 -44t59 -16q42 0 70 23.5t42 72t19.5 106.5t5.5 143q0 86 -5.5 143.5t-19.5 106t-42 71.5t-70 23z" />
    <glyph glyph-name="R" unicode="R" horiz-adv-x="698" 
d="M325 0h-264v24q49 0 60 10t11 54v541q0 44 -11 54t-60 10v24h562v-24q-49 0 -60 -10t-11 -54v-167q-110 0 -177.5 -19t-117.5 -72q66 -1 118.5 -17.5t86 -43t59 -64.5t38.5 -75t22 -82q1 -6 3 -16t2.5 -13.5t2 -10t3 -8.5t4 -6t6 -5t7.5 -3t10.5 -2t14 -0.5t17.5 -0.5
v-24h-263v24q49 0 60 10.5t11 54.5q0 94 -57 175t-148 82v-258q0 -44 11 -54t60 -10v-24zM254 417q67 56 176 69v143q0 44 -11 54t-60 10h-34q-49 0 -60 -10t-11 -54v-212z" />
    <glyph glyph-name="S" unicode="S" horiz-adv-x="646" 
d="M217 33q-12 0 -42.5 -29t-45.5 -29q-25 0 -52.5 24.5t-27.5 53.5q0 12 30 41t54 29t51.5 -16t50 -34.5t59.5 -34.5t79 -16q39 0 64.5 35.5t25.5 108.5q0 173 -160 173q-64 0 -108 13.5t-66 39.5t-30.5 55t-8.5 68q0 101 58.5 156.5t169.5 55.5q62 0 108.5 -19t72.5 -50.5
t38.5 -68.5t12.5 -77q0 -14 -61 -14t-61 14q0 99 -26.5 144.5t-83.5 45.5q-46 0 -76.5 -48t-30.5 -118q0 -34 4 -59.5t15.5 -52.5t38 -42t65.5 -15q251 0 251 -177q0 -100 -56.5 -150t-163.5 -50q-47 0 -81 21.5t-67 21.5z" />
    <glyph glyph-name="T" unicode="T" horiz-adv-x="658" 
d="M461 0h-263v24q49 0 59.5 10t10.5 54v539q0 45 -11 55t-59 10q-29 0 -54 -54t-25 -103h-25q0 38 -13 77.5t-27 59.5l-13 20v25h576v-25q-6 -8 -15 -22t-23.5 -55.5t-14.5 -79.5h-24q0 49 -25 103t-54 54q-49 0 -60 -10.5t-11 -54.5v-539q0 -44 11 -54t60 -10v-24z" />
    <glyph glyph-name="U" unicode="U" horiz-adv-x="731" 
d="M353 -10q-139 0 -193 78.5t-54 269.5v290q0 45 -11 55t-59 10v24h263v-24q-49 0 -60 -10.5t-11 -54.5v-338q0 -54 2 -89t9 -74t20 -61.5t36.5 -37t57.5 -14.5t57.5 14.5t36.5 37t20 61.5t9 74t2 89v338q0 45 -11 55t-59 10v24h263v-24q-49 0 -60 -10.5t-11 -54.5v-290
q0 -191 -54 -269.5t-193 -78.5z" />
    <glyph glyph-name="V" unicode="V" horiz-adv-x="705" 
d="M86 628q-11 42 -32 53.5t-73 11.5v24h263v-24q-53 0 -53 -19q0 -2 4 -18l164 -609l145 647q2 8 10.5 12.5t36.5 7.5t80 3q14 0 14 -12q0 -20 -6 -65t-14 -45h-42q-41 0 -52.5 -4t-15.5 -24l-131 -567h-127z" />
    <glyph glyph-name="W" unicode="W" horiz-adv-x="1005" 
d="M420 628q0 44 -11 54.5t-60 10.5v24h263v-24q-48 0 -59 -10t-11 -55v-149q0 -145 45 -251t94 -156q51 67 92.5 167.5t41.5 223.5v151q0 44 -19 61.5t-64 17.5v24h213v-24q-45 0 -63.5 -17.5t-18.5 -61.5v-79q0 -97 -22.5 -189t-54.5 -154.5t-64 -111t-54 -71.5l-23 -23
q-4 3 -11.5 8.5t-29 26.5t-41.5 44.5t-45 62.5t-44 82q-18 -43 -40.5 -82t-41 -64t-35 -43.5t-25.5 -26.5l-9 -8q-9 6 -24.5 19t-54.5 58t-68.5 97t-54 137.5t-24.5 178.5v152q0 45 -11 55t-59 10v24h263v-24q-49 0 -60 -10.5t-11 -54.5v-149q0 -145 45 -251t94 -156
q63 83 99 183q-37 104 -37 221v152z" />
    <glyph glyph-name="X" unicode="X" horiz-adv-x="673" 
d="M529 88q21 -44 38 -54t67 -10v-24h-263v24q30 0 42 3.5t12 13.5q0 8 -17 47l-94 196l-97 -191q-15 -28 -15 -44q0 -15 16 -20t55 -5v-24h-235v24q50 0 73 5.5t35.5 18t29.5 45.5l119 233l-143 302q-20 41 -39 53t-67 12v24h263v-24q-52 0 -52 -19q0 -11 16 -46l85 -178
l125 244q5 10 11 14t28 6.5t68 2.5q14 0 14 -12q0 -20 -6 -65t-14 -45h-42q-68 0 -80 -23l-84 -164z" />
    <glyph glyph-name="Y" unicode="Y" horiz-adv-x="620" 
d="M279 39q-8 -31 -34.5 -41t-109.5 -10q-14 0 -14 12q0 20 6 65t14 45h85q32 0 42 4.5t14 22.5l16 63l-203 428q-20 41 -38.5 53t-66.5 12v24h263v-24q-52 0 -52 -19q0 -11 16 -46l124 -261l84 327q2 9 7.5 13t32.5 7t81 3q14 0 14 -12q0 -20 -6 -65t-14 -45h-65
q-30 0 -40.5 -6t-14.5 -22z" />
    <glyph glyph-name="Z" unicode="Z" horiz-adv-x="565" 
d="M524 717v-25h-1l-311 -667h194q55 0 87.5 -29.5t32.5 -70.5q0 -42 -37 -70t-112 -28l-45 5l4 22q32 0 52.5 23t20.5 49q0 27 -20.5 50.5t-52.5 23.5h-269l322 692h-128q-54 0 -88 -51.5t-34 -105.5h-24q0 38 -13.5 77.5t-27.5 59.5l-13 20v25h463z" />
    <glyph glyph-name="bracketleft" unicode="[" horiz-adv-x="325" 
d="M82 0v717h192v-24q-48 0 -59 -10t-11 -55v-540q0 -44 10.5 -54t59.5 -10v-24h-192z" />
    <glyph glyph-name="backslash" unicode="\" horiz-adv-x="428" 
d="M91 717l277 -717h-54l-276 717h53z" />
    <glyph glyph-name="bracketright" unicode="]" horiz-adv-x="397" 
d="M315 717v-717h-192v24q49 0 60 10.5t11 54.5v540q0 44 -11 54t-60 10v24h192z" />
    <glyph glyph-name="asciicircum" unicode="^" horiz-adv-x="403" 
d="M202 753l160 -171l-24 -27l-136 94l-136 -94l-25 27z" />
    <glyph glyph-name="underscore" unicode="_" horiz-adv-x="307" 
d="M0 -41h307v-55h-307v55z" />
    <glyph glyph-name="grave" unicode="`" horiz-adv-x="337" 
d="M104 786l193 -204l-25 -27l-231 160z" />
    <glyph glyph-name="a" unicode="a" horiz-adv-x="473" 
d="M341 495l87 -495h-104l-12 62q-60 -72 -156 -72q-57 0 -81.5 35t-24.5 79q0 129 203 299l-20 109h84q21 0 24 -17zM305 106l-48 270q-111 -93 -111 -197q0 -39 20 -75.5t61 -36.5q50 0 78 39z" />
    <glyph glyph-name="b" unicode="b" horiz-adv-x="506" 
d="M447 0h-368v512h342q0 -85 -43 -142.5t-117 -83.5q109 -13 147.5 -73t38.5 -213zM181 25h164q-2 120 -37 175t-127 64v-239zM181 487v-194q72 8 103 54t34 140h-137z" />
    <glyph glyph-name="c" unicode="c" horiz-adv-x="467" 
d="M281 391q-49 58 -57 72q-47 -31 -63 -62t-16 -84q0 -44 21 -87.5t47 -71t53.5 -59t36.5 -50.5q51 38 63 78l56 -21q-63 -83 -167 -120q-87 38 -149.5 121.5t-62.5 146.5q0 38 21.5 86.5t75.5 102t129 79.5q58 -25 112 -79z" />
    <glyph glyph-name="d" unicode="d" horiz-adv-x="562" 
d="M321 522q-4 30 -4 52q0 29 11.5 55t28.5 43t34 30t29 19l11 6l29 -41q-4 -3 -10 -9.5t-16 -29.5t-10 -49q0 -62 10.5 -104t23.5 -62.5t23.5 -64.5t10.5 -109q0 -38 -21.5 -86.5t-76 -102t-129.5 -79.5q-87 38 -149.5 119t-62.5 144q0 51 34 111t98 106.5t136 51.5z
M329 478q-168 -13 -168 -167q0 -43 18.5 -84.5t41.5 -69t51 -59.5t38 -49q47 31 63 62t16 84q0 69 -9.5 118t-27.5 96.5t-23 68.5z" />
    <glyph glyph-name="e" unicode="e" horiz-adv-x="467" 
d="M281 391q-49 58 -57 72q-47 -31 -63 -62t-16 -84q0 -16 3 -31h205v-25h-199q13 -42 44.5 -83t63.5 -75t41 -54q51 38 63 78l56 -21q-63 -83 -167 -120q-87 38 -149.5 121.5t-62.5 146.5q0 38 21.5 86.5t75.5 102t129 79.5q58 -25 112 -79z" />
    <glyph glyph-name="f" unicode="f" horiz-adv-x="459" 
d="M84 0v351q0 27 13 62.5t38.5 75t71.5 75.5t103 56q58 -25 112 -79l-100 -53q-49 58 -57 72q-48 -31 -63.5 -61.5t-15.5 -83.5v-32h208v-25h-208v-358h-102z" />
    <glyph glyph-name="g" unicode="g" horiz-adv-x="539" 
d="M299 391q-47 55 -56 72q-47 -31 -63 -62t-16 -84q0 -44 21 -87.5t47 -71t53.5 -59t36.5 -50.5q30 22 42 32v202h102v-313q0 -91 -41 -133t-126 -42q-29 0 -62 20.5t-55 20.5q-9 0 -34 -25.5t-37 -25.5q-20 0 -42.5 18t-22.5 40q0 13 24 33t44 20q37 0 66.5 -11.5t45 -26
t36.5 -26t43 -11.5q59 0 59 117v94q-42 -29 -91 -46q-87 38 -149.5 121.5t-62.5 146.5q0 38 21.5 86.5t76 102t129.5 79.5q56 -24 111 -79z" />
    <glyph glyph-name="h" unicode="h" horiz-adv-x="552" 
d="M189 0h-102v614h102v-104q36 12 98 12q36 0 69.5 -9.5t63.5 -29t48 -56t18 -85.5v-342h-102v375q0 42 -10 69t-27.5 37.5t-30 13.5t-29.5 3t-29.5 -3t-30.5 -13.5t-28 -37.5t-10 -69v-375z" />
    <glyph glyph-name="i" unicode="i" horiz-adv-x="271" 
d="M108 582q-4 0 -7.5 3t-3.5 7v85q0 4 3.5 7t7.5 3h60q10 0 10 -10v-85q0 -10 -10 -10h-60zM86 512h102v-512h-102v512z" />
    <glyph glyph-name="j" unicode="j" horiz-adv-x="327" 
d="M159 582q-4 0 -7.5 3t-3.5 7v85q0 4 3.5 7t7.5 3h60q10 0 10 -10v-85q0 -10 -10 -10h-60zM137 512h103v-488q0 -122 -34.5 -175.5t-111.5 -53.5q-24 0 -52 20.5t-39 20.5q-9 0 -34.5 -25.5t-37.5 -25.5q-20 0 -42 18t-22 40q0 13 23.5 33t43.5 20q39 0 87.5 -37.5
t81.5 -37.5q20 0 27 42t7 128v521z" />
    <glyph glyph-name="k" unicode="k" horiz-adv-x="498" 
d="M79 512h102v-212q74 25 111 75t37 137h102v-25q0 -79 -53.5 -124t-157.5 -78q102 -20 157.5 -86t55.5 -199h-102q0 125 -44 188.5t-106 76.5v-265h-102v512z" />
    <glyph glyph-name="l" unicode="l" horiz-adv-x="452" 
d="M181 25h68q68 0 87 23t19 106h25q0 -38 8 -70.5t16 -45.5l9 -13v-25h-334v512h102v-487z" />
    <glyph glyph-name="m" unicode="m" horiz-adv-x="727" 
d="M589 495l87 -495h-105l-68 391q-11 -18 -37.5 -54t-45.5 -69t-29 -68l35 -200h-104l-66 373q-100 -144 -100 -333q0 -24 4 -40h-109q2 70 7 107t24 88t58 102.5t108 123.5l-17 91h84q21 0 24 -17l37 -211q6 7 25.5 28.5t28.5 32.5t23.5 29t24.5 33t17 30l-14 75h86
q19 0 22 -17z" />
    <glyph glyph-name="n" unicode="n" horiz-adv-x="501" 
d="M164 0h-103v512h103v-73l174 -249v322h102v-512h-102v123l-174 248v-371z" />
    <glyph glyph-name="o" unicode="o" horiz-adv-x="552" 
d="M315 49q43 32 57 63t14 84q0 43 -18.5 85.5t-41.5 70.5t-51 61t-38 50q-47 -31 -63 -62t-16 -84q0 -44 21 -87.5t46.5 -71t53 -59t36.5 -50.5zM282 522q87 -38 149.5 -121.5t62.5 -146.5q0 -38 -21.5 -86.5t-76 -102t-129.5 -79.5q-87 38 -149.5 121.5t-62.5 146.5
q0 38 21.5 86.5t76 102t129.5 79.5z" />
    <glyph glyph-name="p" unicode="p" horiz-adv-x="530" 
d="M209 -20q14 -70 14 -125q0 -29 -11.5 -55t-28.5 -43t-33 -30t-28 -19l-12 -6l-29 41q4 3 10 9.5t16 29.5t10 49q0 92 -34 208t-34 215q0 38 21.5 86.5t75.5 102t129 79.5q87 -38 149.5 -121.5t62.5 -146.5q0 -53 -35.5 -115t-102 -110t-140.5 -49zM198 24q182 8 182 172
q0 43 -19 85.5t-41.5 70.5t-51 61t-38.5 50q-47 -31 -62.5 -61.5t-15.5 -84.5q0 -30 2.5 -60t5 -51.5t8.5 -51.5t9 -43.5t11 -46t10 -40.5z" />
    <glyph glyph-name="q" unicode="q" horiz-adv-x="564" 
d="M336 -20q-74 1 -141 49t-102.5 110t-35.5 115q0 63 62.5 146.5t149.5 121.5q75 -26 129.5 -79.5t76 -102t21.5 -86.5q0 -99 -34 -215t-34 -208q0 -26 9 -48t18 -31l9 -9l-29 -41q-5 2 -12.5 6t-27 18.5t-34.5 30.5t-27 42.5t-12 55.5q0 55 14 125zM347 24q2 8 10 40.5
t11 46t9 43.5t8.5 51.5t5 51.5t2.5 60q0 53 -16 84t-63 62q-10 -17 -38 -50t-51 -61t-41.5 -70.5t-18.5 -85.5q0 -164 182 -172z" />
    <glyph glyph-name="r" unicode="r" horiz-adv-x="458" 
d="M79 512h102v-63q54 49 124 73q58 -25 112 -79l-101 -52q-47 55 -56 72q-47 -31 -63 -62t-16 -84v-317h-102v512z" />
    <glyph glyph-name="s" unicode="s" horiz-adv-x="570" 
d="M191 39q-9 0 -36 -29t-39 -29q-20 0 -42.5 18t-22.5 40q0 10 27 38.5t46 28.5q28 0 100.5 -45t110.5 -45q30 0 51.5 36.5t21.5 93.5q0 133 -128 133q-83 0 -130 33.5t-47 82.5q0 71 46.5 99t142.5 28q95 0 140 -43t45 -102q0 -11 -49 -11q-53 0 -53 11q0 64 -19 92.5
t-64 28.5q-39 0 -62.5 -26.5t-23.5 -77.5q0 -35 25.5 -63t72.5 -28q108 0 157 -38.5t49 -99.5q0 -77 -49 -126t-132 -49q-31 0 -71 24.5t-67 24.5z" />
    <glyph glyph-name="t" unicode="t" horiz-adv-x="503" 
d="M198 0v487q-40 0 -59 -3t-34.5 -16t-19.5 -38t-4 -72h-25q0 38 -8 70.5t-16 45.5l-8 13v25h450v-25q-33 -43 -33 -129h-24q0 47 -4 72t-19.5 38t-34.5 16t-59 3v-487h-102z" />
    <glyph glyph-name="u" unicode="u" horiz-adv-x="549" 
d="M51 340q0 33 5.5 63t13.5 49t16 34q8 14 14 20l6 6h99q-6 -8 -14.5 -22.5t-22.5 -59t-14 -88.5q0 -120 41 -203.5t112 -83.5q68 0 98.5 67t30.5 175q0 46 -17 83t-33.5 68t-16.5 64h100q25 -41 25 -96q0 -96 -12 -171t-32 -122t-47.5 -77.5t-56.5 -43t-61 -12.5
q-40 0 -80.5 22t-75.5 63.5t-56.5 110.5t-21.5 154z" />
    <glyph glyph-name="v" unicode="v" horiz-adv-x="567" 
d="M282 39h17l121 451q4 13 10 16q15 7 82 7q14 0 14 -12q0 -20 -6 -65t-14 -45h-42q-30 0 -35 -3.5t-10 -23.5l-98 -364h-118l-150 487q-4 12 -4 15q0 11 17 11h42q18 0 25 -5t12 -19z" />
    <glyph glyph-name="w" unicode="w" horiz-adv-x="787" 
d="M537 -10q-9 5 -24.5 14.5t-53.5 43t-66 73.5q-24 -43 -54 -76q-31 -33 -49 -44l-18 -11q-9 5 -23 14t-51 41t-65 69t-51 98t-23 128q0 53 14 96q14 44 28 60l14 16h98q-6 -8 -14.5 -22.5t-22.5 -59t-14 -88.5q0 -100 42 -174t91 -113q47 42 77 102q-48 86 -48 183
q0 53 14 96q14 44 28 60l13 16h98q-6 -8 -14.5 -22.5t-22.5 -59t-14 -88.5q0 -100 42 -174t91 -113q109 97 109 242q0 46 -17 83t-34 68t-17 64h100q2 -8 13.5 -36t11.5 -60q0 -92 -19.5 -170t-47 -123t-55 -77t-47.5 -44z" />
    <glyph glyph-name="x" unicode="x" horiz-adv-x="510" 
d="M102 512h62l91 -157l77 134q5 9 10 12.5t28 7t68 3.5q15 0 15 -12q0 -19 -6.5 -64.5t-14.5 -45.5h-59q-65 0 -76 -22l-25 -44l188 -324h-118l-127 220l-123 -220h-41l146 253l-119 205q-8 13 -8 27q0 27 32 27z" />
    <glyph glyph-name="y" unicode="y" horiz-adv-x="568" 
d="M362 -45q0 -77 15 -120t15 -56q0 -11 -5.5 -18t-13.5 -7q-37 0 -37 205v41h-105l-183 487q-3 9 -3 15q0 11 16 11h56q18 0 25 -4.5t12 -19.5l171 -457h12q5 180 29 300t48 158q13 22 96 23q13 0 13 -12q0 -20 -6 -65t-14 -45h-31q-31 0 -43 -6.5t-21 -26.5
q-9 -19 -18.5 -57t-18.5 -131t-9 -215z" />
    <glyph glyph-name="z" unicode="z" horiz-adv-x="468" 
d="M210 -168l4 22q44 0 67 22t23 50q0 30 -20.5 52t-69.5 22h-151l227 487h-58q-68 0 -87 -23t-19 -106h-25q0 38 -8 70.5t-16 45.5l-8 13v25h346l-229 -487h98q55 0 87.5 -29.5t32.5 -70.5q0 -42 -37 -70t-112 -28z" />
    <glyph glyph-name="braceleft" unicode="{" horiz-adv-x="311" 
d="M270 729v-12q-46 0 -61.5 -27.5t-15.5 -80.5q0 -15 1.5 -48t1.5 -50q0 -61 -18.5 -100.5t-71.5 -52.5q53 -13 71.5 -52t18.5 -100q0 -17 -1.5 -50t-1.5 -48q0 -53 15.5 -80.5t61.5 -27.5v-12q-89 0 -120.5 39t-31.5 109q0 22 3 64.5t3 60.5q0 44 -15.5 67.5t-57.5 23.5
v13q42 0 57.5 23.5t15.5 67.5q0 18 -3 61t-3 64q0 70 31.5 109t120.5 39z" />
    <glyph glyph-name="bar" unicode="|" horiz-adv-x="184" 
d="M72 748h41v-779h-41v779z" />
    <glyph glyph-name="braceright" unicode="}" horiz-adv-x="311" 
d="M41 -12v12q46 0 62 28t16 80q0 15 -1.5 48t-1.5 50q0 61 18 100t71 52q-36 9 -57 33.5t-26.5 52t-5.5 67.5q0 17 1.5 50t1.5 48q0 52 -16 80t-62 28v12q89 0 121 -39.5t32 -108.5q0 -21 -3.5 -63.5t-3.5 -61.5q0 -44 15.5 -67.5t57.5 -23.5v-13q-42 0 -57.5 -23.5
t-15.5 -67.5q0 -19 3.5 -61t3.5 -64q0 -69 -32 -108.5t-121 -39.5z" />
    <glyph glyph-name="asciitilde" unicode="~" horiz-adv-x="376" 
d="M294 530q-34 0 -90.5 22t-85.5 22l-10 -1q-19 -45 -43 -45q-11 0 -23 8.5t-12 26.5q0 11 3 20.5t16 19t34 9.5q34 0 90.5 -22t85.5 -22l10 1q19 45 43 45q7 0 14 -2.5t14 -10.5t7 -21q0 -11 -3 -21t-16 -19.5t-34 -9.5z" />
    <glyph glyph-name="uni00A0" unicode="&#xa0;" horiz-adv-x="307" 
 />
    <glyph glyph-name="exclamdown" unicode="&#xa1;" horiz-adv-x="268" 
d="M191 -102h-111l20 553h71zM171 614q10 0 10 -10v-72q0 -10 -10 -10h-71q-10 0 -10 10v72q0 10 10 10h71z" />
    <glyph glyph-name="dieresis" unicode="&#xa8;" horiz-adv-x="311" 
d="M180 735q-10 0 -10 10v111q0 10 10 10h61q10 0 10 -10v-111q0 -10 -10 -10h-61zM31 735q-4 0 -7.5 3t-3.5 7v111q0 4 3.5 7t7.5 3h60q10 0 10 -10v-111q0 -10 -10 -10h-60z" />
    <glyph glyph-name="guillemotleft" unicode="&#xab;" horiz-adv-x="540" 
d="M61 306l183 214l30 -19l-104 -195l104 -194l-30 -20zM266 306l183 214l30 -19l-104 -195l104 -194l-30 -20z" />
    <glyph glyph-name="uni00AD" unicode="&#xad;" horiz-adv-x="359" 
d="M33 381h270v-55h-270v55z" />
    <glyph glyph-name="macron" unicode="&#xaf;" horiz-adv-x="359" 
d="M33 819h294v-55h-294v55z" />
    <glyph glyph-name="degree" unicode="&#xb0;" horiz-adv-x="368" 
d="M81 502q0 -43 30 -73.5t73 -30.5t73.5 30.5t30.5 73.5t-30.5 73t-73.5 30t-73 -30t-30 -73zM41 502q0 59 42 101t101 42t101.5 -42t42.5 -101t-42.5 -101.5t-101.5 -42.5t-101 42.5t-42 101.5z" />
    <glyph glyph-name="acute" unicode="&#xb4;" horiz-adv-x="337" 
d="M233 786l64 -71l-231 -160l-25 27z" />
    <glyph glyph-name="cedilla" unicode="&#xb8;" horiz-adv-x="262" 
d="M137 -51q37 -2 60.5 -20.5t23.5 -45.5q0 -71 -180 -71v20q39 0 67.5 13t28.5 32.5t-15 34t-36 14.5l29 92h44z" />
    <glyph glyph-name="guillemotright" unicode="&#xbb;" horiz-adv-x="540" 
d="M274 306l-182 -214l-31 20l105 194l-105 195l31 19zM479 306l-182 -214l-31 20l105 194l-105 195l31 19z" />
    <glyph glyph-name="questiondown" unicode="&#xbf;" horiz-adv-x="486" 
d="M336 625q4 0 7 -3.5t3 -7.5v-71q0 -4 -3 -7.5t-7 -3.5h-71q-4 0 -7 3.5t-3 7.5v71q0 4 3 7.5t7 3.5h71zM360 443q0 -85 -29 -134.5t-112 -99.5q-46 -28 -46 -151q0 -56 20.5 -96t56.5 -40q45 0 64 28.5t19 92.5q0 11 53 11q49 0 49 -11q0 -59 -45 -102t-140 -43
q-91 0 -145 42.5t-54 116.5q0 81 114 152q45 29 60 77t15 157h120z" />
    <glyph glyph-name="Agrave" unicode="&#xc0;" horiz-adv-x="661" 
d="M239 984l193 -204l-25 -27l-231 160zM529 88q0 -44 11 -54t60 -10v-24h-263v24q49 0 60 10t11 54v289q-79 -115 -181 -115q39 -26 39 -73q0 -56 -52 -79v-8q0 -44 19 -61t64 -17v-24h-236v24q45 0 63.5 17t18.5 61v7q-24 10 -39 31.5t-15 48.5q0 29 18 52.5t45 31.5
q-65 23 -65 97q0 51 35.5 100.5t92.5 88t101.5 62t89.5 42.5q-3 20 -16.5 25t-52.5 5v24h263v-24q-49 0 -60 -10.5t-11 -54.5v-540zM408 424v204v4q-31 -12 -60 -28.5t-64.5 -43t-57 -63.5t-21.5 -79q0 -94 80 -94q52 0 123 100z" />
    <glyph glyph-name="Aacute" unicode="&#xc1;" horiz-adv-x="661" 
d="M456 984l64 -71l-231 -160l-25 27zM529 88q0 -44 11 -54t60 -10v-24h-263v24q49 0 60 10t11 54v289q-79 -115 -181 -115q39 -26 39 -73q0 -56 -52 -79v-8q0 -44 19 -61t64 -17v-24h-236v24q45 0 63.5 17t18.5 61v7q-24 10 -39 31.5t-15 48.5q0 29 18 52.5t45 31.5
q-65 23 -65 97q0 51 35.5 100.5t92.5 88t101.5 62t89.5 42.5q-3 20 -16.5 25t-52.5 5v24h263v-24q-49 0 -60 -10.5t-11 -54.5v-540zM408 424v204v4q-31 -12 -60 -28.5t-64.5 -43t-57 -63.5t-21.5 -79q0 -94 80 -94q52 0 123 100z" />
    <glyph glyph-name="Acircumflex" unicode="&#xc2;" horiz-adv-x="661" 
d="M341 952l160 -171l-24 -27l-136 94l-136 -94l-25 27zM529 88q0 -44 11 -54t60 -10v-24h-263v24q49 0 60 10t11 54v289q-79 -115 -181 -115q39 -26 39 -73q0 -56 -52 -79v-8q0 -44 19 -61t64 -17v-24h-236v24q45 0 63.5 17t18.5 61v7q-24 10 -39 31.5t-15 48.5
q0 29 18 52.5t45 31.5q-65 23 -65 97q0 51 35.5 100.5t92.5 88t101.5 62t89.5 42.5q-3 20 -16.5 25t-52.5 5v24h263v-24q-49 0 -60 -10.5t-11 -54.5v-540zM408 424v204v4q-31 -12 -60 -28.5t-64.5 -43t-57 -63.5t-21.5 -79q0 -94 80 -94q52 0 123 100z" />
    <glyph glyph-name="Atilde" unicode="&#xc3;" horiz-adv-x="661" 
d="M441 754q-34 0 -90.5 22t-85.5 22l-10 -1q-19 -45 -43 -45q-11 0 -23 8.5t-12 26.5q0 11 3 20.5t16 19t34 9.5q34 0 90.5 -22t85.5 -22l10 1q19 45 43 45q7 0 14 -2.5t14 -10.5t7 -21q0 -11 -3 -21t-16 -19.5t-34 -9.5zM529 88q0 -44 11 -54t60 -10v-24h-263v24
q49 0 60 10t11 54v289q-79 -115 -181 -115q39 -26 39 -73q0 -56 -52 -79v-8q0 -44 19 -61t64 -17v-24h-236v24q45 0 63.5 17t18.5 61v7q-24 10 -39 31.5t-15 48.5q0 29 18 52.5t45 31.5q-65 23 -65 97q0 51 35.5 100.5t92.5 88t101.5 62t89.5 42.5q-3 20 -16.5 25t-52.5 5
v24h263v-24q-49 0 -60 -10.5t-11 -54.5v-540zM408 424v204v4q-31 -12 -60 -28.5t-64.5 -43t-57 -63.5t-21.5 -79q0 -94 80 -94q52 0 123 100z" />
    <glyph glyph-name="Adieresis" unicode="&#xc4;" horiz-adv-x="661" 
d="M387 778q-10 0 -10 10v111q0 10 10 10h61q10 0 10 -10v-111q0 -10 -10 -10h-61zM238 778q-4 0 -7.5 3t-3.5 7v111q0 4 3.5 7t7.5 3h60q10 0 10 -10v-111q0 -10 -10 -10h-60zM529 88q0 -44 11 -54t60 -10v-24h-263v24q49 0 60 10t11 54v289q-79 -115 -181 -115
q39 -26 39 -73q0 -56 -52 -79v-8q0 -44 19 -61t64 -17v-24h-236v24q45 0 63.5 17t18.5 61v7q-24 10 -39 31.5t-15 48.5q0 29 18 52.5t45 31.5q-65 23 -65 97q0 51 35.5 100.5t92.5 88t101.5 62t89.5 42.5q-3 20 -16.5 25t-52.5 5v24h263v-24q-49 0 -60 -10.5t-11 -54.5v-540
zM408 424v204v4q-31 -12 -60 -28.5t-64.5 -43t-57 -63.5t-21.5 -79q0 -94 80 -94q52 0 123 100z" />
    <glyph glyph-name="Aring" unicode="&#xc5;" horiz-adv-x="661" 
d="M405 815q0 -27 18.5 -45.5t45.5 -18.5t46 18.5t19 45.5t-19 46t-46 19t-45.5 -19t-18.5 -46zM373 815q0 39 28.5 67.5t67.5 28.5t67.5 -28.5t28.5 -67.5t-28.5 -67.5t-67.5 -28.5t-67.5 28.5t-28.5 67.5zM529 88q0 -44 11 -54t60 -10v-24h-263v24q49 0 60 10t11 54v289
q-79 -115 -181 -115q39 -26 39 -73q0 -56 -52 -79v-8q0 -44 19 -61t64 -17v-24h-236v24q45 0 63.5 17t18.5 61v7q-24 10 -39 31.5t-15 48.5q0 29 18 52.5t45 31.5q-65 23 -65 97q0 51 35.5 100.5t92.5 88t101.5 62t89.5 42.5q-3 20 -16.5 25t-52.5 5v24h263v-24
q-49 0 -60 -10.5t-11 -54.5v-540zM408 424v204v4q-31 -12 -60 -28.5t-64.5 -43t-57 -63.5t-21.5 -79q0 -94 80 -94q52 0 123 100z" />
    <glyph glyph-name="AE" unicode="&#xc6;" horiz-adv-x="1056" 
d="M408 424v208q-31 -12 -60 -28.5t-64.5 -43t-57 -63.5t-21.5 -79q0 -94 80 -94q52 0 123 100zM990 173q-37 0 -58 -19t-34 -45.5t-32 -53.5t-67 -46t-124 -19q-44 0 -78 10h-260v24q49 0 60 10t11 54v289q-79 -115 -181 -115q39 -26 39 -73q0 -56 -52 -79v-8q0 -44 19 -61
t64 -17v-24h-236v24q45 0 63.5 17t18.5 61v7q-24 10 -39 31.5t-15 48.5q0 29 18 52.5t45 31.5q-65 23 -65 97q0 51 35.5 100.5t92.5 88t101.5 62t89.5 42.5q-3 20 -16.5 25t-52.5 5v24h257q39 11 81 11q48 0 84.5 -8t58.5 -18.5t41 -31.5t28 -36.5t24 -44.5q22 -44 79 -44
v-24h-263v24q50 0 65.5 11t15.5 33q0 42 -33.5 78t-97.5 36q-74 0 -108 -72t-39 -209q59 48 138 48q105 0 151 -19.5t72 -73.5q7 -16 10.5 -21.5t13.5 -19.5t25 -20t35 -6v-23h-263v23q38 0 57.5 7t23.5 15.5t4 24.5q0 28 -29 57t-98 29q-79 0 -141 -60v-25q0 -170 33 -257
t115 -87q64 0 97.5 36t33.5 78q0 23 -15.5 34t-65.5 11v24h263v-24z" />
    <glyph glyph-name="Ccedilla" unicode="&#xc7;" horiz-adv-x="701" 
d="M343 -68q37 -2 60.5 -20.5t23.5 -45.5q0 -71 -180 -71v20q39 0 67.5 13t28.5 32.5t-15 34t-36 14.5l26 81h-1q-134 0 -198.5 99.5t-64.5 269.5q0 169 64.5 269t198.5 100q121 0 177.5 -49t77.5 -156q9 -46 14 -53q10 -12 57 -12v-24h-263v24q49 0 60 10.5t11 54.5
q0 90 -31 135t-101 45q-42 0 -70 -23.5t-42 -72t-19.5 -106.5t-5.5 -143q0 -86 5.5 -143.5t19.5 -106t42 -71.5t70 -23q70 0 101 45.5t31 135.5q0 44 -11 54.5t-60 10.5v24h263v-24q-10 0 -17.5 -0.5t-14 -0.5t-10.5 -2t-7.5 -3t-6 -5t-4 -6t-3 -8.5t-2.5 -10t-3 -13.5
t-3 -16q-23 -108 -79 -157q-45 -38 -131 -46z" />
    <glyph glyph-name="Egrave" unicode="&#xc8;" horiz-adv-x="720" 
d="M239 984l193 -204l-25 -27l-231 160zM574 128q-16 -30 -24 -44t-27.5 -36t-41 -32t-58 -18t-84.5 -8q-135 0 -204 100.5t-69 268.5q0 167 69 268t204 101q48 0 84.5 -8t58.5 -18.5t41 -31.5t28 -36.5t24 -44.5q22 -44 79 -44v-24h-263v24q50 0 65.5 11t15.5 33
q0 42 -33.5 78t-97.5 36q-74 0 -107.5 -72t-38.5 -209q59 48 137 48q105 0 151 -19.5t72 -73.5q7 -16 10.5 -21.5t13.5 -19.5t25 -20t35 -6v-23h-263v23q38 0 57.5 7t23.5 15.5t4 24.5q0 28 -29 57t-98 29q-78 0 -140 -60v-25q0 -170 32.5 -257t114.5 -87q64 0 97.5 36
t33.5 78q0 23 -15.5 34t-65.5 11v24h263v-24q-58 0 -80 -45z" />
    <glyph glyph-name="Eacute" unicode="&#xc9;" horiz-adv-x="720" 
d="M456 984l64 -71l-231 -160l-25 27zM574 128q-16 -30 -24 -44t-27.5 -36t-41 -32t-58 -18t-84.5 -8q-135 0 -204 100.5t-69 268.5q0 167 69 268t204 101q48 0 84.5 -8t58.5 -18.5t41 -31.5t28 -36.5t24 -44.5q22 -44 79 -44v-24h-263v24q50 0 65.5 11t15.5 33
q0 42 -33.5 78t-97.5 36q-74 0 -107.5 -72t-38.5 -209q59 48 137 48q105 0 151 -19.5t72 -73.5q7 -16 10.5 -21.5t13.5 -19.5t25 -20t35 -6v-23h-263v23q38 0 57.5 7t23.5 15.5t4 24.5q0 28 -29 57t-98 29q-78 0 -140 -60v-25q0 -170 32.5 -257t114.5 -87q64 0 97.5 36
t33.5 78q0 23 -15.5 34t-65.5 11v24h263v-24q-58 0 -80 -45z" />
    <glyph glyph-name="Ecircumflex" unicode="&#xca;" horiz-adv-x="720" 
d="M341 952l160 -171l-24 -27l-136 94l-136 -94l-25 27zM574 128q-16 -30 -24 -44t-27.5 -36t-41 -32t-58 -18t-84.5 -8q-135 0 -204 100.5t-69 268.5q0 167 69 268t204 101q48 0 84.5 -8t58.5 -18.5t41 -31.5t28 -36.5t24 -44.5q22 -44 79 -44v-24h-263v24q50 0 65.5 11
t15.5 33q0 42 -33.5 78t-97.5 36q-74 0 -107.5 -72t-38.5 -209q59 48 137 48q105 0 151 -19.5t72 -73.5q7 -16 10.5 -21.5t13.5 -19.5t25 -20t35 -6v-23h-263v23q38 0 57.5 7t23.5 15.5t4 24.5q0 28 -29 57t-98 29q-78 0 -140 -60v-25q0 -170 32.5 -257t114.5 -87
q64 0 97.5 36t33.5 78q0 23 -15.5 34t-65.5 11v24h263v-24q-58 0 -80 -45z" />
    <glyph glyph-name="Edieresis" unicode="&#xcb;" horiz-adv-x="720" 
d="M387 778q-10 0 -10 10v111q0 10 10 10h61q10 0 10 -10v-111q0 -10 -10 -10h-61zM238 778q-4 0 -7.5 3t-3.5 7v111q0 4 3.5 7t7.5 3h60q10 0 10 -10v-111q0 -10 -10 -10h-60zM574 128q-16 -30 -24 -44t-27.5 -36t-41 -32t-58 -18t-84.5 -8q-135 0 -204 100.5t-69 268.5
q0 167 69 268t204 101q48 0 84.5 -8t58.5 -18.5t41 -31.5t28 -36.5t24 -44.5q22 -44 79 -44v-24h-263v24q50 0 65.5 11t15.5 33q0 42 -33.5 78t-97.5 36q-74 0 -107.5 -72t-38.5 -209q59 48 137 48q105 0 151 -19.5t72 -73.5q7 -16 10.5 -21.5t13.5 -19.5t25 -20t35 -6v-23
h-263v23q38 0 57.5 7t23.5 15.5t4 24.5q0 28 -29 57t-98 29q-78 0 -140 -60v-25q0 -170 32.5 -257t114.5 -87q64 0 97.5 36t33.5 78q0 23 -15.5 34t-65.5 11v24h263v-24q-58 0 -80 -45z" />
    <glyph glyph-name="Igrave" unicode="&#xcc;" horiz-adv-x="386" 
d="M63 984l193 -204l-25 -27l-231 160zM254 88q0 -44 11 -54t60 -10v-24h-264v24q49 0 60 10t11 54v540q0 44 -11 54.5t-60 10.5v24h264v-24q-49 0 -60 -10.5t-11 -54.5v-540z" />
    <glyph glyph-name="Iacute" unicode="&#xcd;" horiz-adv-x="386" 
d="M322 984l64 -71l-231 -160l-25 27zM254 88q0 -44 11 -54t60 -10v-24h-264v24q49 0 60 10t11 54v540q0 44 -11 54.5t-60 10.5v24h264v-24q-49 0 -60 -10.5t-11 -54.5v-540z" />
    <glyph glyph-name="Icircumflex" unicode="&#xce;" horiz-adv-x="386" 
d="M193 952l160 -171l-24 -27l-136 94l-136 -94l-25 27zM254 88q0 -44 11 -54t60 -10v-24h-264v24q49 0 60 10t11 54v540q0 44 -11 54.5t-60 10.5v24h264v-24q-49 0 -60 -10.5t-11 -54.5v-540z" />
    <glyph glyph-name="Idieresis" unicode="&#xcf;" horiz-adv-x="386" 
d="M254 88q0 -44 11 -54t60 -10v-24h-264v24q49 0 60 10t11 54v540q0 44 -11 54.5t-60 10.5v24h264v-24q-49 0 -60 -10.5t-11 -54.5v-540zM235 778q-10 0 -10 10v111q0 10 10 10h61q10 0 10 -10v-111q0 -10 -10 -10h-61zM86 778q-4 0 -7.5 3t-3.5 7v111q0 4 3.5 7t7.5 3h60
q10 0 10 -10v-111q0 -10 -10 -10h-60z" />
    <glyph glyph-name="Eth" unicode="&#xd0;" horiz-adv-x="693" 
d="M325 717q162 0 232 -93.5t70 -282.5q0 -170 -70.5 -255.5t-231.5 -85.5h-264v24q49 0 60 10t11 54v252h-71v35h71v253q0 44 -11 54.5t-60 10.5v24h264zM254 340v-252q0 -44 11 -53.5t60 -9.5q78 0 126 88.5t48 227.5q0 169 -47 260t-127 91q-49 0 -60 -10t-11 -54v-253
h78v-35h-78z" />
    <glyph glyph-name="Ntilde" unicode="&#xd1;" horiz-adv-x="710" 
d="M452 754q-34 0 -90.5 22t-85.5 22l-10 -1q-19 -45 -43 -45q-11 0 -23 8.5t-12 26.5q0 11 3 20.5t16 19t34 9.5q34 0 90.5 -22t85.5 -22l10 1q19 45 43 45q7 0 14 -2.5t14 -10.5t7 -21q0 -11 -3 -21t-16 -19.5t-34 -9.5zM579 88q0 -44 10.5 -54t59.5 -10v-24h-263v24
q49 0 60 10t11 54v130l-203 243v-373q0 -44 11 -54t60 -10v-24h-264v24q49 0 60 10t11 54v540q0 44 -11 54.5t-60 10.5v24h264v-24q-49 0 -60 -10.5t-11 -54.5v-118l203 -241v359q0 44 -11 54.5t-60 10.5v24h263v-24q-48 0 -59 -10t-11 -55v-540z" />
    <glyph glyph-name="Ograve" unicode="&#xd2;" horiz-adv-x="633" 
d="M147 984l193 -204l-25 -27l-231 160zM317 703q-43 0 -71 -23.5t-42 -72t-19.5 -106.5t-5.5 -143q0 -68 3 -117t12 -94t24 -73t40 -44t59 -16q42 0 70 23.5t42.5 72t20 106.5t5.5 143t-5.5 143.5t-20 106.5t-42.5 71t-70 23zM317 728q134 0 200 -100.5t66 -269.5
t-66 -268.5t-200 -99.5t-200 100t-66 269t66 269t200 100z" />
    <glyph glyph-name="Oacute" unicode="&#xd3;" horiz-adv-x="633" 
d="M485 984l64 -71l-231 -160l-25 27zM317 703q-43 0 -71 -23.5t-42 -72t-19.5 -106.5t-5.5 -143q0 -68 3 -117t12 -94t24 -73t40 -44t59 -16q42 0 70 23.5t42.5 72t20 106.5t5.5 143t-5.5 143.5t-20 106.5t-42.5 71t-70 23zM317 728q134 0 200 -100.5t66 -269.5t-66 -268.5
t-200 -99.5t-200 100t-66 269t66 269t200 100z" />
    <glyph glyph-name="Ocircumflex" unicode="&#xd4;" horiz-adv-x="633" 
d="M317 952l160 -171l-24 -27l-136 94l-136 -94l-25 27zM317 703q-43 0 -71 -23.5t-42 -72t-19.5 -106.5t-5.5 -143q0 -68 3 -117t12 -94t24 -73t40 -44t59 -16q42 0 70 23.5t42.5 72t20 106.5t5.5 143t-5.5 143.5t-20 106.5t-42.5 71t-70 23zM317 728q134 0 200 -100.5
t66 -269.5t-66 -268.5t-200 -99.5t-200 100t-66 269t66 269t200 100z" />
    <glyph glyph-name="Otilde" unicode="&#xd5;" horiz-adv-x="633" 
d="M422 754q-34 0 -90.5 22t-85.5 22l-10 -1q-19 -45 -43 -45q-11 0 -23 8.5t-12 26.5q0 11 3 20.5t16 19t34 9.5q34 0 90.5 -22t85.5 -22l10 1q19 45 43 45q7 0 14 -2.5t14 -10.5t7 -21q0 -11 -3 -21t-16 -19.5t-34 -9.5zM317 703q-43 0 -71 -23.5t-42 -72t-19.5 -106.5
t-5.5 -143q0 -68 3 -117t12 -94t24 -73t40 -44t59 -16q42 0 70 23.5t42.5 72t20 106.5t5.5 143t-5.5 143.5t-20 106.5t-42.5 71t-70 23zM317 728q134 0 200 -100.5t66 -269.5t-66 -268.5t-200 -99.5t-200 100t-66 269t66 269t200 100z" />
    <glyph glyph-name="Odieresis" unicode="&#xd6;" horiz-adv-x="633" 
d="M360 778q-10 0 -10 10v111q0 10 10 10h61q10 0 10 -10v-111q0 -10 -10 -10h-61zM211 778q-4 0 -7.5 3t-3.5 7v111q0 4 3.5 7t7.5 3h60q10 0 10 -10v-111q0 -10 -10 -10h-60zM317 703q-43 0 -71 -23.5t-42 -72t-19.5 -106.5t-5.5 -143q0 -68 3 -117t12 -94t24 -73t40 -44
t59 -16q42 0 70 23.5t42.5 72t20 106.5t5.5 143t-5.5 143.5t-20 106.5t-42.5 71t-70 23zM317 728q134 0 200 -100.5t66 -269.5t-66 -268.5t-200 -99.5t-200 100t-66 269t66 269t200 100z" />
    <glyph glyph-name="Oslash" unicode="&#xd8;" horiz-adv-x="633" 
d="M529 717h54l-63 -93q63 -97 63 -266t-66 -268.5t-200 -99.5q-108 0 -174 68l-39 -58h-53l63 94q-63 97 -63 265q0 169 66 269t200 100q108 0 175 -69zM317 703q-43 0 -71 -23.5t-42 -72t-19.5 -106.5t-5.5 -143q0 -102 6 -156l253 378q-14 61 -43 92t-78 31zM449 515
l-252 -378q14 -62 42.5 -92.5t77.5 -30.5q42 0 70 23.5t42.5 72t20 106.5t5.5 143q0 102 -6 156z" />
    <glyph glyph-name="Ugrave" unicode="&#xd9;" horiz-adv-x="731" 
d="M186 984l193 -204l-25 -27l-231 160zM353 -10q-139 0 -193 78.5t-54 269.5v290q0 45 -11 55t-59 10v24h263v-24q-49 0 -60 -10.5t-11 -54.5v-338q0 -54 2 -89t9 -74t20 -61.5t36.5 -37t57.5 -14.5t57.5 14.5t36.5 37t20 61.5t9 74t2 89v338q0 45 -11 55t-59 10v24h263
v-24q-49 0 -60 -10.5t-11 -54.5v-290q0 -191 -54 -269.5t-193 -78.5z" />
    <glyph glyph-name="Uacute" unicode="&#xda;" horiz-adv-x="731" 
d="M526 984l64 -71l-231 -160l-25 27zM353 -10q-139 0 -193 78.5t-54 269.5v290q0 45 -11 55t-59 10v24h263v-24q-49 0 -60 -10.5t-11 -54.5v-338q0 -54 2 -89t9 -74t20 -61.5t36.5 -37t57.5 -14.5t57.5 14.5t36.5 37t20 61.5t9 74t2 89v338q0 45 -11 55t-59 10v24h263v-24
q-49 0 -60 -10.5t-11 -54.5v-290q0 -191 -54 -269.5t-193 -78.5z" />
    <glyph glyph-name="Ucircumflex" unicode="&#xdb;" horiz-adv-x="731" 
d="M356 952l160 -171l-24 -27l-136 94l-136 -94l-25 27zM353 -10q-139 0 -193 78.5t-54 269.5v290q0 45 -11 55t-59 10v24h263v-24q-49 0 -60 -10.5t-11 -54.5v-338q0 -54 2 -89t9 -74t20 -61.5t36.5 -37t57.5 -14.5t57.5 14.5t36.5 37t20 61.5t9 74t2 89v338q0 45 -11 55
t-59 10v24h263v-24q-49 0 -60 -10.5t-11 -54.5v-290q0 -191 -54 -269.5t-193 -78.5z" />
    <glyph glyph-name="Udieresis" unicode="&#xdc;" horiz-adv-x="731" 
d="M399 778q-10 0 -10 10v111q0 10 10 10h61q10 0 10 -10v-111q0 -10 -10 -10h-61zM250 778q-4 0 -7.5 3t-3.5 7v111q0 4 3.5 7t7.5 3h60q10 0 10 -10v-111q0 -10 -10 -10h-60zM353 -10q-139 0 -193 78.5t-54 269.5v290q0 45 -11 55t-59 10v24h263v-24q-49 0 -60 -10.5
t-11 -54.5v-338q0 -54 2 -89t9 -74t20 -61.5t36.5 -37t57.5 -14.5t57.5 14.5t36.5 37t20 61.5t9 74t2 89v338q0 45 -11 55t-59 10v24h263v-24q-49 0 -60 -10.5t-11 -54.5v-290q0 -191 -54 -269.5t-193 -78.5z" />
    <glyph glyph-name="Yacute" unicode="&#xdd;" horiz-adv-x="620" 
d="M419 984l64 -71l-231 -160l-25 27zM279 39q-8 -31 -34.5 -41t-109.5 -10q-14 0 -14 12q0 20 6 65t14 45h85q32 0 42 4.5t14 22.5l16 63l-203 428q-20 41 -38.5 53t-66.5 12v24h263v-24q-52 0 -52 -19q0 -11 16 -46l124 -261l84 327q2 9 7.5 13t32.5 7t81 3q14 0 14 -12
q0 -20 -6 -65t-14 -45h-65q-30 0 -40.5 -6t-14.5 -22z" />
    <glyph glyph-name="Thorn" unicode="&#xde;" horiz-adv-x="616" 
d="M254 88q0 -44 11 -54t60 -10v-24h-264v24q49 0 60 10t11 54v540q0 44 -11 54.5t-60 10.5v24h264v-24q-49 0 -60 -10.5t-11 -54.5v-49q161 0 241 -51.5t80 -169.5t-79.5 -168.5t-241.5 -50.5v-51zM254 555v-391q98 0 139.5 38.5t41.5 155.5t-42 157t-139 40z" />
    <glyph glyph-name="germandbls" unicode="&#xdf;" horiz-adv-x="588" 
d="M186 0h-102v480q0 27 13 62.5t38.5 75t71.5 75.5t103 56q58 -25 112 -79l-100 -53q-49 58 -57 72q-48 -31 -63.5 -61.5t-15.5 -83.5v-32h335l-152 -357q57 -6 104.5 -50t47.5 -129q0 -63 -60 -101t-133 -38q-45 0 -73 12.5t-47 12.5q-9 0 -34.5 -25.5t-37.5 -25.5
q-20 0 -42 18t-22 40q0 13 23.5 32.5t43.5 19.5q57 0 102 -29t93 -29q22 0 53.5 31t31.5 84q0 86 -31 114.5t-93 28.5q-18 0 -27.5 11t-9.5 20q0 1 2 5l140 330h-214v-487z" />
    <glyph glyph-name="agrave" unicode="&#xe0;" horiz-adv-x="473" 
d="M107 815l193 -204l-25 -27l-231 160zM341 495l87 -495h-104l-12 62q-60 -72 -156 -72q-57 0 -81.5 35t-24.5 79q0 129 203 299l-20 109h84q21 0 24 -17zM305 106l-48 270q-111 -93 -111 -197q0 -39 20 -75.5t61 -36.5q50 0 78 39z" />
    <glyph glyph-name="aacute" unicode="&#xe1;" horiz-adv-x="473" 
d="M443 815l64 -71l-231 -160l-25 27zM341 495l87 -495h-104l-12 62q-60 -72 -156 -72q-57 0 -81.5 35t-24.5 79q0 129 203 299l-20 109h84q21 0 24 -17zM305 106l-48 270q-111 -93 -111 -197q0 -39 20 -75.5t61 -36.5q50 0 78 39z" />
    <glyph glyph-name="acircumflex" unicode="&#xe2;" horiz-adv-x="473" 
d="M276 782l160 -171l-24 -27l-136 94l-136 -94l-25 27zM341 495l87 -495h-104l-12 62q-60 -72 -156 -72q-57 0 -81.5 35t-24.5 79q0 129 203 299l-20 109h84q21 0 24 -17zM305 106l-48 270q-111 -93 -111 -197q0 -39 20 -75.5t61 -36.5q50 0 78 39z" />
    <glyph glyph-name="atilde" unicode="&#xe3;" horiz-adv-x="473" 
d="M381 585q-34 0 -90.5 22t-85.5 22l-10 -1q-19 -45 -43 -45q-11 0 -23 8.5t-12 26.5q0 11 3 20.5t16 19t34 9.5q34 0 90.5 -22t85.5 -22l10 1q19 45 43 45q7 0 14 -2.5t14 -10.5t7 -21q0 -11 -3 -21t-16 -19.5t-34 -9.5zM341 495l87 -495h-104l-12 62q-60 -72 -156 -72
q-57 0 -81.5 35t-24.5 79q0 129 203 299l-20 109h84q21 0 24 -17zM305 106l-48 270q-111 -93 -111 -197q0 -39 20 -75.5t61 -36.5q50 0 78 39z" />
    <glyph glyph-name="adieresis" unicode="&#xe4;" horiz-adv-x="473" 
d="M319 583q-10 0 -10 10v111q0 10 10 10h61q10 0 10 -10v-111q0 -10 -10 -10h-61zM170 583q-4 0 -7.5 3t-3.5 7v111q0 4 3.5 7t7.5 3h60q10 0 10 -10v-111q0 -10 -10 -10h-60zM341 495l87 -495h-104l-12 62q-60 -72 -156 -72q-57 0 -81.5 35t-24.5 79q0 129 203 299
l-20 109h84q21 0 24 -17zM305 106l-48 270q-111 -93 -111 -197q0 -39 20 -75.5t61 -36.5q50 0 78 39z" />
    <glyph glyph-name="aring" unicode="&#xe5;" horiz-adv-x="473" 
d="M211 610q0 -27 18.5 -45.5t45.5 -18.5t46 18.5t19 45.5t-19 46t-46 19t-45.5 -19t-18.5 -46zM179 610q0 39 28.5 67.5t67.5 28.5t67.5 -28.5t28.5 -67.5t-28.5 -67.5t-67.5 -28.5t-67.5 28.5t-28.5 67.5zM341 495l87 -495h-104l-12 62q-60 -72 -156 -72q-57 0 -81.5 35
t-24.5 79q0 129 203 299l-20 109h84q21 0 24 -17zM305 106l-48 270q-111 -93 -111 -197q0 -39 20 -75.5t61 -36.5q50 0 78 39z" />
    <glyph glyph-name="ae" unicode="&#xe6;" horiz-adv-x="697" 
d="M305 106l-48 270q-111 -93 -111 -197q0 -39 20 -75.5t61 -36.5q50 0 78 39zM343 96q-51 -64 -93 -85t-94 -21q-57 0 -81.5 35t-24.5 79q0 129 203 299l-20 109h84q21 0 24 -17l12 -69q59 64 146 96q56 -24 111 -79l-100 -52q-47 55 -56 72q-47 -31 -63 -62t-16 -84
q0 -16 3 -31h205v-25h-200q13 -42 44.5 -83t63.5 -75t41 -54q51 38 63 78l56 -21q-63 -83 -167 -120q-81 37 -141 110z" />
    <glyph glyph-name="ccedilla" unicode="&#xe7;" horiz-adv-x="467" 
d="M269 -67q37 -2 60.5 -20.5t23.5 -45.5q0 -71 -180 -71v20q39 0 67.5 13t28.5 32.5t-15 34t-36 14.5l26 81q-80 39 -138 117q-63 83 -63 146q0 38 21.5 86.5t75.5 102t129 79.5q58 -25 112 -79l-100 -52q-49 58 -57 72q-47 -31 -63 -62t-16 -84q0 -44 21 -87.5t47 -71
t53.5 -59t36.5 -50.5q51 38 63 78l56 -21q-52 -68 -131 -105z" />
    <glyph glyph-name="egrave" unicode="&#xe8;" horiz-adv-x="467" 
d="M166 815l193 -204l-25 -27l-231 160zM281 391q-49 58 -57 72q-47 -31 -63 -62t-16 -84q0 -16 3 -31h205v-25h-199q13 -42 44.5 -83t63.5 -75t41 -54q51 38 63 78l56 -21q-63 -83 -167 -120q-87 38 -149.5 121.5t-62.5 146.5q0 38 21.5 86.5t75.5 102t129 79.5
q58 -25 112 -79z" />
    <glyph glyph-name="eacute" unicode="&#xe9;" horiz-adv-x="467" 
d="M351 815l64 -71l-231 -160l-25 27zM281 391q-49 58 -57 72q-47 -31 -63 -62t-16 -84q0 -16 3 -31h205v-25h-199q13 -42 44.5 -83t63.5 -75t41 -54q51 38 63 78l56 -21q-63 -83 -167 -120q-87 38 -149.5 121.5t-62.5 146.5q0 38 21.5 86.5t75.5 102t129 79.5
q58 -25 112 -79z" />
    <glyph glyph-name="ecircumflex" unicode="&#xea;" horiz-adv-x="467" 
d="M243 782l160 -171l-24 -27l-136 94l-136 -94l-25 27zM281 391q-49 58 -57 72q-47 -31 -63 -62t-16 -84q0 -16 3 -31h205v-25h-199q13 -42 44.5 -83t63.5 -75t41 -54q51 38 63 78l56 -21q-63 -83 -167 -120q-87 38 -149.5 121.5t-62.5 146.5q0 38 21.5 86.5t75.5 102
t129 79.5q58 -25 112 -79z" />
    <glyph glyph-name="edieresis" unicode="&#xeb;" horiz-adv-x="467" 
d="M289 583q-10 0 -10 10v111q0 10 10 10h61q10 0 10 -10v-111q0 -10 -10 -10h-61zM140 583q-4 0 -7.5 3t-3.5 7v111q0 4 3.5 7t7.5 3h60q10 0 10 -10v-111q0 -10 -10 -10h-60zM281 391q-49 58 -57 72q-47 -31 -63 -62t-16 -84q0 -16 3 -31h205v-25h-199q13 -42 44.5 -83
t63.5 -75t41 -54q51 38 63 78l56 -21q-63 -83 -167 -120q-87 38 -149.5 121.5t-62.5 146.5q0 38 21.5 86.5t75.5 102t129 79.5q58 -25 112 -79z" />
    <glyph glyph-name="igrave" unicode="&#xec;" horiz-adv-x="225" 
d="M-14 815l193 -204l-25 -27l-231 160zM61 512h103v-512h-103v512z" />
    <glyph glyph-name="iacute" unicode="&#xed;" horiz-adv-x="225" 
d="M238 815l64 -71l-231 -160l-25 27zM61 512h103v-512h-103v512z" />
    <glyph glyph-name="icircumflex" unicode="&#xee;" horiz-adv-x="225" 
d="M113 782l160 -171l-24 -27l-136 94l-136 -94l-25 27zM61 512h103v-512h-103v512z" />
    <glyph glyph-name="idieresis" unicode="&#xef;" horiz-adv-x="278" 
d="M156 583q-10 0 -10 10v111q0 10 10 10h61q10 0 10 -10v-111q0 -10 -10 -10h-61zM7 583q-4 0 -7.5 3t-3.5 7v111q0 4 3.5 7t7.5 3h60q10 0 10 -10v-111q0 -10 -10 -10h-60zM61 512h103v-512h-103v512z" />
    <glyph glyph-name="eth" unicode="&#xf0;" horiz-adv-x="562" 
d="M94 700l21 27q64 -25 131 -58l125 58l10 -22l-109 -51q109 -62 164.5 -153.5t55.5 -242.5q0 -38 -21.5 -86.5t-76 -102t-129.5 -79.5q-87 38 -149.5 119t-62.5 144q0 95 80.5 175.5t188.5 97.5q-39 65 -95 107l-109 -51l-10 22l96 45q-47 30 -110 51zM342 484
q-90 -10 -135.5 -55t-45.5 -118q0 -43 18.5 -84.5t41.5 -69t51 -59.5t38 -49q47 31 63 62t16 84q0 177 -47 289z" />
    <glyph glyph-name="ntilde" unicode="&#xf1;" horiz-adv-x="501" 
d="M357 585q-34 0 -90.5 22t-85.5 22l-10 -1q-19 -45 -43 -45q-11 0 -23 8.5t-12 26.5q0 11 3 20.5t16 19t34 9.5q34 0 90.5 -22t85.5 -22l10 1q19 45 43 45q7 0 14 -2.5t14 -10.5t7 -21q0 -11 -3 -21t-16 -19.5t-34 -9.5zM164 0h-103v512h103v-154l174 -121v275h102v-512
h-102v197l-174 121v-318z" />
    <glyph glyph-name="ograve" unicode="&#xf2;" horiz-adv-x="552" 
d="M144 815l193 -204l-25 -27l-231 160zM315 49q43 32 57 63t14 84q0 43 -18.5 85.5t-41.5 70.5t-51 61t-38 50q-47 -31 -63 -62t-16 -84q0 -44 21 -87.5t46.5 -71t53 -59t36.5 -50.5zM282 522q87 -38 149.5 -121.5t62.5 -146.5q0 -38 -21.5 -86.5t-76 -102t-129.5 -79.5
q-87 38 -149.5 121.5t-62.5 146.5q0 38 21.5 86.5t76 102t129.5 79.5z" />
    <glyph glyph-name="oacute" unicode="&#xf3;" horiz-adv-x="552" 
d="M418 815l64 -71l-231 -160l-25 27zM315 49q43 32 57 63t14 84q0 43 -18.5 85.5t-41.5 70.5t-51 61t-38 50q-47 -31 -63 -62t-16 -84q0 -44 21 -87.5t46.5 -71t53 -59t36.5 -50.5zM282 522q87 -38 149.5 -121.5t62.5 -146.5q0 -38 -21.5 -86.5t-76 -102t-129.5 -79.5
q-87 38 -149.5 121.5t-62.5 146.5q0 38 21.5 86.5t76 102t129.5 79.5z" />
    <glyph glyph-name="ocircumflex" unicode="&#xf4;" horiz-adv-x="552" 
d="M282 782l160 -171l-24 -27l-136 94l-136 -94l-25 27zM315 49q43 32 57 63t14 84q0 43 -18.5 85.5t-41.5 70.5t-51 61t-38 50q-47 -31 -63 -62t-16 -84q0 -44 21 -87.5t46.5 -71t53 -59t36.5 -50.5zM282 522q87 -38 149.5 -121.5t62.5 -146.5q0 -38 -21.5 -86.5t-76 -102
t-129.5 -79.5q-87 38 -149.5 121.5t-62.5 146.5q0 38 21.5 86.5t76 102t129.5 79.5z" />
    <glyph glyph-name="otilde" unicode="&#xf5;" horiz-adv-x="552" 
d="M387 585q-34 0 -90.5 22t-85.5 22l-10 -1q-19 -45 -43 -45q-11 0 -23 8.5t-12 26.5q0 11 3 20.5t16 19t34 9.5q34 0 90.5 -22t85.5 -22l10 1q19 45 43 45q7 0 14 -2.5t14 -10.5t7 -21q0 -11 -3 -21t-16 -19.5t-34 -9.5zM315 49q43 32 57 63t14 84q0 43 -18.5 85.5
t-41.5 70.5t-51 61t-38 50q-47 -31 -63 -62t-16 -84q0 -44 21 -87.5t46.5 -71t53 -59t36.5 -50.5zM282 522q87 -38 149.5 -121.5t62.5 -146.5q0 -38 -21.5 -86.5t-76 -102t-129.5 -79.5q-87 38 -149.5 121.5t-62.5 146.5q0 38 21.5 86.5t76 102t129.5 79.5z" />
    <glyph glyph-name="odieresis" unicode="&#xf6;" horiz-adv-x="552" 
d="M325 583q-10 0 -10 10v111q0 10 10 10h61q10 0 10 -10v-111q0 -10 -10 -10h-61zM176 583q-4 0 -7.5 3t-3.5 7v111q0 4 3.5 7t7.5 3h60q10 0 10 -10v-111q0 -10 -10 -10h-60zM315 49q43 32 57 63t14 84q0 43 -18.5 85.5t-41.5 70.5t-51 61t-38 50q-47 -31 -63 -62t-16 -84
q0 -44 21 -87.5t46.5 -71t53 -59t36.5 -50.5zM282 522q87 -38 149.5 -121.5t62.5 -146.5q0 -38 -21.5 -86.5t-76 -102t-129.5 -79.5q-87 38 -149.5 121.5t-62.5 146.5q0 38 21.5 86.5t76 102t129.5 79.5z" />
    <glyph glyph-name="oslash" unicode="&#xf8;" horiz-adv-x="552" 
d="M383 628h53l-63 -165q54 -46 87.5 -105.5t33.5 -103.5q0 -38 -21.5 -86.5t-76 -102t-129.5 -79.5q-26 11 -64 38l-43 -113h-54l57 146q-49 46 -78.5 101t-29.5 96q0 38 21.5 86.5t76 102t129.5 79.5q20 -8 50 -27zM315 49q43 32 57 63t14 84q0 75 -57 152l-83 -213
q5 -6 17 -18.5t17.5 -19t13.5 -16t13 -17.5t8 -15zM210 179l82 213q-45 53 -55 71q-47 -31 -63 -62t-16 -84q0 -68 52 -138z" />
    <glyph glyph-name="ugrave" unicode="&#xf9;" horiz-adv-x="549" 
d="M140 815l193 -204l-25 -27l-231 160zM51 340q0 33 5.5 63t13.5 49t16 34q8 14 14 20l6 6h99q-6 -8 -14.5 -22.5t-22.5 -59t-14 -88.5q0 -120 41 -203.5t112 -83.5q68 0 98.5 67t30.5 175q0 46 -17 83t-33.5 68t-16.5 64h100q25 -41 25 -96q0 -96 -12 -171t-32 -122
t-47.5 -77.5t-56.5 -43t-61 -12.5q-40 0 -80.5 22t-75.5 63.5t-56.5 110.5t-21.5 154z" />
    <glyph glyph-name="uacute" unicode="&#xfa;" horiz-adv-x="549" 
d="M435 815l64 -71l-231 -160l-25 27zM51 340q0 33 5.5 63t13.5 49t16 34q8 14 14 20l6 6h99q-6 -8 -14.5 -22.5t-22.5 -59t-14 -88.5q0 -120 41 -203.5t112 -83.5q68 0 98.5 67t30.5 175q0 46 -17 83t-33.5 68t-16.5 64h100q25 -41 25 -96q0 -96 -12 -171t-32 -122
t-47.5 -77.5t-56.5 -43t-61 -12.5q-40 0 -80.5 22t-75.5 63.5t-56.5 110.5t-21.5 154z" />
    <glyph glyph-name="ucircumflex" unicode="&#xfb;" horiz-adv-x="549" 
d="M288 782l160 -171l-24 -27l-136 94l-136 -94l-25 27zM51 340q0 33 5.5 63t13.5 49t16 34q8 14 14 20l6 6h99q-6 -8 -14.5 -22.5t-22.5 -59t-14 -88.5q0 -120 41 -203.5t112 -83.5q68 0 98.5 67t30.5 175q0 46 -17 83t-33.5 68t-16.5 64h100q25 -41 25 -96q0 -96 -12 -171
t-32 -122t-47.5 -77.5t-56.5 -43t-61 -12.5q-40 0 -80.5 22t-75.5 63.5t-56.5 110.5t-21.5 154z" />
    <glyph glyph-name="udieresis" unicode="&#xfc;" horiz-adv-x="549" 
d="M332 583q-10 0 -10 10v111q0 10 10 10h61q10 0 10 -10v-111q0 -10 -10 -10h-61zM183 583q-4 0 -7.5 3t-3.5 7v111q0 4 3.5 7t7.5 3h60q10 0 10 -10v-111q0 -10 -10 -10h-60zM51 340q0 33 5.5 63t13.5 49t16 34q8 14 14 20l6 6h99q-6 -8 -14.5 -22.5t-22.5 -59t-14 -88.5
q0 -120 41 -203.5t112 -83.5q68 0 98.5 67t30.5 175q0 46 -17 83t-33.5 68t-16.5 64h100q25 -41 25 -96q0 -96 -12 -171t-32 -122t-47.5 -77.5t-56.5 -43t-61 -12.5q-40 0 -80.5 22t-75.5 63.5t-56.5 110.5t-21.5 154z" />
    <glyph glyph-name="yacute" unicode="&#xfd;" horiz-adv-x="568" 
d="M453 815l64 -71l-231 -160l-25 27zM362 -45q0 -77 15 -120t15 -56q0 -11 -5.5 -18t-13.5 -7q-37 0 -37 205v41h-105l-183 487q-3 9 -3 15q0 11 16 11h56q18 0 25 -4.5t12 -19.5l171 -457h12q5 180 29 300t48 158q13 22 96 23q13 0 13 -12q0 -20 -6 -65t-14 -45h-31
q-31 0 -43 -6.5t-21 -26.5q-9 -19 -18.5 -57t-18.5 -131t-9 -215z" />
    <glyph glyph-name="thorn" unicode="&#xfe;" horiz-adv-x="530" 
d="M49 717h103v-268q55 50 123 73q87 -38 149.5 -121.5t62.5 -146.5q0 -38 -25 -83t-67.5 -85t-107 -67.5t-135.5 -28.5v-193h-103v920zM152 18q107 5 167.5 57t60.5 121q0 43 -19 85.5t-41.5 70.5t-51 61t-38.5 50q-47 -31 -62.5 -61.5t-15.5 -84.5v-299z" />
    <glyph glyph-name="ydieresis" unicode="&#xff;" horiz-adv-x="568" 
d="M330 583q-10 0 -10 10v111q0 10 10 10h61q10 0 10 -10v-111q0 -10 -10 -10h-61zM181 583q-4 0 -7.5 3t-3.5 7v111q0 4 3.5 7t7.5 3h60q10 0 10 -10v-111q0 -10 -10 -10h-60zM362 -45q0 -77 15 -120t15 -56q0 -11 -5.5 -18t-13.5 -7q-37 0 -37 205v41h-105l-183 487
q-3 9 -3 15q0 11 16 11h56q18 0 25 -4.5t12 -19.5l171 -457h12q5 180 29 300t48 158q13 22 96 23q13 0 13 -12q0 -20 -6 -65t-14 -45h-31q-31 0 -43 -6.5t-21 -26.5q-9 -19 -18.5 -57t-18.5 -131t-9 -215z" />
    <glyph glyph-name="Amacron" unicode="&#x100;" horiz-adv-x="661" 
d="M197 819h294v-55h-294v55zM529 88q0 -44 11 -54t60 -10v-24h-263v24q49 0 60 10t11 54v289q-79 -115 -181 -115q39 -26 39 -73q0 -56 -52 -79v-8q0 -44 19 -61t64 -17v-24h-236v24q45 0 63.5 17t18.5 61v7q-24 10 -39 31.5t-15 48.5q0 29 18 52.5t45 31.5q-65 23 -65 97
q0 51 35.5 100.5t92.5 88t101.5 62t89.5 42.5q-3 20 -16.5 25t-52.5 5v24h263v-24q-49 0 -60 -10.5t-11 -54.5v-540zM408 424v204v4q-31 -12 -60 -28.5t-64.5 -43t-57 -63.5t-21.5 -79q0 -94 80 -94q52 0 123 100z" />
    <glyph glyph-name="amacron" unicode="&#x101;" horiz-adv-x="473" 
d="M121 659h294v-55h-294v55zM341 495l87 -495h-104l-12 62q-60 -72 -156 -72q-57 0 -81.5 35t-24.5 79q0 129 203 299l-20 109h84q21 0 24 -17zM305 106l-48 270q-111 -93 -111 -197q0 -39 20 -75.5t61 -36.5q50 0 78 39z" />
    <glyph glyph-name="Abreve" unicode="&#x102;" horiz-adv-x="661" 
d="M468 760q-147 0 -147 58q0 21 10 33.5t25 12.5q21 0 29 -15t8 -47q28 -17 75 -17q21 0 40 4q20 4 28 8l8 5q0 32 8 47t29 15q15 0 25 -12.5t10 -33.5q0 -58 -148 -58zM529 88q0 -44 11 -54t60 -10v-24h-263v24q49 0 60 10t11 54v289q-79 -115 -181 -115q39 -26 39 -73
q0 -56 -52 -79v-8q0 -44 19 -61t64 -17v-24h-236v24q45 0 63.5 17t18.5 61v7q-24 10 -39 31.5t-15 48.5q0 29 18 52.5t45 31.5q-65 23 -65 97q0 51 35.5 100.5t92.5 88t101.5 62t89.5 42.5q-3 20 -16.5 25t-52.5 5v24h263v-24q-49 0 -60 -10.5t-11 -54.5v-540zM408 424v204
v4q-31 -12 -60 -28.5t-64.5 -43t-57 -63.5t-21.5 -79q0 -94 80 -94q52 0 123 100z" />
    <glyph glyph-name="abreve" unicode="&#x103;" horiz-adv-x="473" 
d="M280 586q-147 0 -147 58q0 21 10 33.5t25 12.5q21 0 29 -15t8 -47q28 -17 75 -17q21 0 40 4q20 4 28 8l8 5q0 32 8 47t29 15q15 0 25 -12.5t10 -33.5q0 -58 -148 -58zM341 495l87 -495h-104l-12 62q-60 -72 -156 -72q-57 0 -81.5 35t-24.5 79q0 129 203 299l-20 109h84
q21 0 24 -17zM305 106l-48 270q-111 -93 -111 -197q0 -39 20 -75.5t61 -36.5q50 0 78 39z" />
    <glyph glyph-name="Aogonek" unicode="&#x104;" horiz-adv-x="661" 
d="M368 -199q45 0 75 51l20 -8q-5 -22 -17 -42q-52 -91 -119 -91q-33 0 -60.5 25t-27.5 70q0 40 20 71l79 123h-1v24q49 0 60 10t11 54v289q-79 -115 -181 -115q39 -26 39 -73q0 -56 -52 -79v-8q0 -44 19 -61t64 -17v-24h-236v24q45 0 63.5 17t18.5 61v7q-24 10 -39 31.5
t-15 48.5q0 29 18 52.5t45 31.5q-65 23 -65 97q0 51 35.5 100.5t92.5 88t101.5 62t89.5 42.5q-3 20 -16.5 25t-52.5 5v24h263v-24q-49 0 -60 -10.5t-11 -54.5v-540q0 -44 11 -54t60 -10v-24h-239l-45 -75q-18 -32 -18 -56q0 -29 21.5 -48.5t48.5 -19.5zM408 424v204v4
q-31 -12 -60 -28.5t-64.5 -43t-57 -63.5t-21.5 -79q0 -94 80 -94q52 0 123 100z" />
    <glyph glyph-name="aogonek" unicode="&#x105;" horiz-adv-x="473" 
d="M353 -199q45 0 75 51l20 -8q-5 -22 -17 -42q-52 -91 -119 -91q-33 0 -60.5 25t-27.5 70q0 40 20 71l79 123h1l-12 62q-60 -72 -156 -72q-57 0 -81.5 35t-24.5 79q0 129 203 299l-20 109h84q21 0 24 -17l87 -495h-82l-45 -75q-18 -32 -18 -56q0 -29 21.5 -48.5t48.5 -19.5
zM305 106l-48 270q-111 -93 -111 -197q0 -39 20 -75.5t61 -36.5q50 0 78 39z" />
    <glyph glyph-name="Cacute" unicode="&#x106;" horiz-adv-x="701" 
d="M456 984l64 -71l-231 -160l-25 27zM182 358q0 -86 5.5 -143.5t19.5 -106t42 -71.5t70 -23q70 0 101 45.5t31 135.5q0 44 -11 54.5t-60 10.5v24h263v-24q-10 0 -17.5 -0.5t-14 -0.5t-10.5 -2t-7.5 -3t-6 -5t-4 -6t-3 -8.5t-2.5 -10t-3 -13.5t-3 -16q-23 -108 -79 -156.5
t-176 -48.5q-134 0 -198.5 99.5t-64.5 269.5q0 169 64.5 269t198.5 100q121 0 177.5 -49t77.5 -156q9 -46 14 -53q10 -12 57 -12v-24h-263v24q49 0 60 10.5t11 54.5q0 90 -31 135t-101 45q-42 0 -70 -23.5t-42 -72t-19.5 -106.5t-5.5 -143z" />
    <glyph glyph-name="cacute" unicode="&#x107;" horiz-adv-x="467" 
d="M351 815l64 -71l-231 -160l-25 27zM281 391q-49 58 -57 72q-47 -31 -63 -62t-16 -84q0 -44 21 -87.5t47 -71t53.5 -59t36.5 -50.5q51 38 63 78l56 -21q-63 -83 -167 -120q-87 38 -149.5 121.5t-62.5 146.5q0 38 21.5 86.5t75.5 102t129 79.5q58 -25 112 -79z" />
    <glyph glyph-name="Ccaron" unicode="&#x10c;" horiz-adv-x="701" 
d="M446 777q-31 0 -46.5 -4.5t-21.5 -9.5t-18 -25q-4 -6 -7 -11q93 -6 141 -48q56 -49 78 -156q9 -46 14 -53q10 -12 57 -12v-24h-263v24q49 0 60 10.5t11 54.5q0 90 -31 135t-101 45q-42 0 -70 -23.5t-42 -72t-19.5 -106.5t-5.5 -143q0 -86 5.5 -143.5t19.5 -106t42 -71.5
t70 -23q70 0 101 45.5t31 135.5q0 44 -11 54.5t-60 10.5v24h263v-24q-10 0 -17.5 -0.5t-14 -0.5t-10.5 -2t-7.5 -3t-6 -5t-4 -6t-3 -8.5t-2.5 -10t-3 -13.5t-3 -16q-23 -108 -79 -156.5t-176 -48.5q-134 0 -198.5 99.5t-64.5 269.5q0 169 64 269q62 97 190 100q-3 3 -6 5
q-18 15 -29.5 25t-24 20.5t-20 17t-15 13.5t-12 11t-7.5 8t-4.5 7t-1.5 6q0 10 20.5 27t40.5 17q12 0 24.5 -15t36.5 -58t30 -53l54 109q9 19 85 19q13 0 13 -10q0 -18 -5.5 -59t-12.5 -41h-28z" />
    <glyph glyph-name="ccaron" unicode="&#x10d;" horiz-adv-x="467" 
d="M379 573q-31 0 -46.5 -4.5t-21.5 -9.5q-5 -5 -17 -25q-6 -10 -12 -18q51 -25 99 -73l-100 -52q-49 58 -57 72q-47 -31 -63 -62t-16 -84q0 -44 21 -87.5t47 -71t53.5 -59t36.5 -50.5q51 38 63 78l56 -21q-63 -83 -167 -120q-87 38 -149.5 121.5t-62.5 146.5q0 38 21 86
q22 48 76 102q46 46 111 73l-16 14q-18 15 -29.5 25t-24 20.5t-20 17t-15 13.5t-12 11t-7.5 8t-4.5 7t-1.5 6q0 10 20.5 27t40.5 17q12 0 24.5 -15t36.5 -58t30 -53l54 109q9 19 85 19q13 0 13 -10q0 -18 -5.5 -59t-12.5 -41h-28z" />
    <glyph glyph-name="Dcaron" unicode="&#x10e;" horiz-adv-x="693" 
d="M446 777q-31 0 -46.5 -4.5t-21.5 -9.5t-18 -25q-7 -12 -14 -21q145 -5 211 -93q70 -94 70 -283q0 -170 -70.5 -255.5t-231.5 -85.5h-264v24q49 0 60 10t11 54v540q0 44 -11 54.5t-60 10.5v24h260q-9 8 -19 16q-18 15 -29.5 25t-24 20.5t-20 17t-15 13.5t-12 11t-7.5 8
t-4.5 7t-1.5 6q0 10 20.5 27t40.5 17q12 0 24.5 -15t36.5 -58t30 -53l54 109q9 19 85 19q13 0 13 -10q0 -18 -5.5 -59t-12.5 -41h-28zM254 628v-540q0 -44 11 -53.5t60 -9.5q78 0 126 88.5t48 227.5q0 169 -47 260t-127 91q-49 0 -60 -10t-11 -54z" />
    <glyph glyph-name="dcaron" unicode="&#x10f;" horiz-adv-x="594" 
d="M584 766q0 -50 -18 -98t-32 -68t-25 -31h-24q22 49 22 91q0 12 -12 52t-12 74q0 4 3 7.5t7 3.5h81q4 0 7 -3.5t3 -7.5v-20zM321 522q-4 30 -4 52q0 29 11.5 55t28.5 43t34 30t29 19l11 6l29 -41q-4 -3 -10 -9.5t-16 -29.5t-10 -49q0 -62 10.5 -104t23.5 -62.5t23.5 -64.5
t10.5 -109q0 -38 -21.5 -86.5t-76 -102t-129.5 -79.5q-87 38 -149.5 119t-62.5 144q0 51 34 111t98 106.5t136 51.5zM329 478q-168 -13 -168 -167q0 -43 18.5 -84.5t41.5 -69t51 -59.5t38 -49q47 31 63 62t16 84q0 69 -9.5 118t-27.5 96.5t-23 68.5z" />
    <glyph glyph-name="Dcroat" unicode="&#x110;" horiz-adv-x="693" 
d="M325 717q162 0 232 -93.5t70 -282.5q0 -170 -70.5 -255.5t-231.5 -85.5h-264v24q49 0 60 10t11 54v252h-71v35h71v253q0 44 -11 54.5t-60 10.5v24h264zM254 340v-252q0 -44 11 -53.5t60 -9.5q78 0 126 88.5t48 227.5q0 169 -47 260t-127 91q-49 0 -60 -10t-11 -54v-253
h78v-35h-78z" />
    <glyph glyph-name="dcroat" unicode="&#x111;" horiz-adv-x="562" 
d="M329 478q-168 -13 -168 -167q0 -43 18.5 -84.5t41.5 -69t51 -59.5t38 -49q47 31 63 62t16 84q0 69 -9.5 118t-27.5 96.5t-23 68.5zM321 522q-4 30 -4 52v3h-119v41h126q2 6 4 11q12 26 29 43t34 30t29 19l11 6l29 -41q-4 -3 -10 -9.5t-16 -29.5q-6 -14 -8 -29h66v-41h-68
q2 -48 10 -83q10 -42 23.5 -62.5t24 -64.5t10.5 -109q0 -38 -21.5 -86.5t-76 -102t-129.5 -79.5q-87 38 -149.5 119t-62.5 144q0 51 34 111t98 106.5t136 51.5z" />
    <glyph glyph-name="Emacron" unicode="&#x112;" horiz-adv-x="720" 
d="M197 819h294v-55h-294v55zM574 128q-16 -30 -24 -44t-27.5 -36t-41 -32t-58 -18t-84.5 -8q-135 0 -204 100.5t-69 268.5q0 167 69 268t204 101q48 0 84.5 -8t58.5 -18.5t41 -31.5t28 -36.5t24 -44.5q22 -44 79 -44v-24h-263v24q50 0 65.5 11t15.5 33q0 42 -33.5 78
t-97.5 36q-74 0 -107.5 -72t-38.5 -209q59 48 137 48q105 0 151 -19.5t72 -73.5q7 -16 10.5 -21.5t13.5 -19.5t25 -20t35 -6v-23h-263v23q38 0 57.5 7t23.5 15.5t4 24.5q0 28 -29 57t-98 29q-78 0 -140 -60v-25q0 -170 32.5 -257t114.5 -87q64 0 97.5 36t33.5 78
q0 23 -15.5 34t-65.5 11v24h263v-24q-58 0 -80 -45z" />
    <glyph glyph-name="emacron" unicode="&#x113;" horiz-adv-x="467" 
d="M108 659h294v-55h-294v55zM281 391q-49 58 -57 72q-47 -31 -63 -62t-16 -84q0 -16 3 -31h205v-25h-199q13 -42 44.5 -83t63.5 -75t41 -54q51 38 63 78l56 -21q-63 -83 -167 -120q-87 38 -149.5 121.5t-62.5 146.5q0 38 21.5 86.5t75.5 102t129 79.5q58 -25 112 -79z" />
    <glyph glyph-name="Edotaccent" unicode="&#x116;" horiz-adv-x="720" 
d="M308 779q-10 0 -10 10v110q0 4 3 7.5t7 3.5h61q4 0 7 -3.5t3 -7.5v-110q0 -10 -10 -10h-61zM574 128q-16 -30 -24 -44t-27.5 -36t-41 -32t-58 -18t-84.5 -8q-135 0 -204 100.5t-69 268.5q0 167 69 268t204 101q48 0 84.5 -8t58.5 -18.5t41 -31.5t28 -36.5t24 -44.5
q22 -44 79 -44v-24h-263v24q50 0 65.5 11t15.5 33q0 42 -33.5 78t-97.5 36q-74 0 -107.5 -72t-38.5 -209q59 48 137 48q105 0 151 -19.5t72 -73.5q7 -16 10.5 -21.5t13.5 -19.5t25 -20t35 -6v-23h-263v23q38 0 57.5 7t23.5 15.5t4 24.5q0 28 -29 57t-98 29q-78 0 -140 -60
v-25q0 -170 32.5 -257t114.5 -87q64 0 97.5 36t33.5 78q0 23 -15.5 34t-65.5 11v24h263v-24q-58 0 -80 -45z" />
    <glyph glyph-name="edotaccent" unicode="&#x117;" horiz-adv-x="467" 
d="M221 584q-10 0 -10 10v110q0 4 3 7.5t7 3.5h61q4 0 7 -3.5t3 -7.5v-110q0 -10 -10 -10h-61zM281 391q-49 58 -57 72q-47 -31 -63 -62t-16 -84q0 -16 3 -31h205v-25h-199q13 -42 44.5 -83t63.5 -75t41 -54q51 38 63 78l56 -21q-63 -83 -167 -120q-87 38 -149.5 121.5
t-62.5 146.5q0 38 21.5 86.5t75.5 102t129 79.5q58 -25 112 -79z" />
    <glyph glyph-name="Eogonek" unicode="&#x118;" horiz-adv-x="720" 
d="M353 -199q45 0 75 51l20 -8q-5 -22 -17 -42q-52 -91 -119 -91q-33 0 -60.5 25t-27.5 70q0 40 20 71l73 114q-119 7 -182 99q-69 100 -69 269q0 167 69 268t204 101q48 0 84.5 -8t58.5 -18.5t41 -31.5t28 -36.5t24 -44.5q22 -44 79 -44v-24h-263v24q50 0 65.5 11t15.5 33
q0 42 -33.5 78t-97.5 36q-74 0 -107.5 -72t-38.5 -209q59 48 137 48q105 0 151 -19.5t72 -73.5q7 -16 10.5 -21.5t13.5 -19.5t25 -20t35 -6v-23h-263v23q38 0 57.5 7t23.5 15.5t4 24.5q0 28 -29 57t-98 29q-78 0 -140 -60v-25q0 -170 32.5 -257t114.5 -87q64 0 97.5 36
t33.5 78q0 23 -15.5 34t-65.5 11v24h263v-24q-58 0 -80 -45q-16 -30 -24 -44t-27.5 -36t-41 -32t-57.5 -18t-84 -8l-39 -65q-18 -32 -18 -56q0 -29 21.5 -48.5t48.5 -19.5z" />
    <glyph glyph-name="eogonek" unicode="&#x119;" horiz-adv-x="467" 
d="M280 -199q45 0 75 51l20 -8q-5 -22 -17 -42q-52 -91 -119 -91q-33 0 -60.5 25t-27.5 70q0 40 20 71l73 114q-80 39 -138 117q-62 84 -63 146q0 38 21.5 86.5t75.5 102t129 79.5q58 -25 112 -79l-100 -52q-49 58 -57 72q-47 -31 -63 -62t-16 -84q0 -16 3 -31h205v-25h-199
q13 -42 44.5 -83t63.5 -75t41 -54q51 38 63 78l56 -21q-59 -78 -155 -115l-39 -66q-18 -32 -18 -56q0 -29 21.5 -48.5t48.5 -19.5z" />
    <glyph glyph-name="Ecaron" unicode="&#x11a;" horiz-adv-x="720" 
d="M446 777q-31 0 -46.5 -4.5t-21.5 -9.5t-18 -25q-3 -6 -6 -10q40 -1 70 -8q36 -8 58 -18.5t41 -31.5t28 -36.5t24 -44.5q22 -44 79 -44v-24h-263v24q50 0 65.5 11t15.5 33q0 42 -33.5 78t-97.5 36q-74 0 -107.5 -72t-38.5 -209q59 48 137 48q105 0 151 -19.5t72 -73.5
q7 -16 10.5 -21.5t13.5 -19.5t25 -20t35 -6v-23h-263v23q38 0 57.5 7t23.5 15.5t4 24.5q0 28 -29 57t-98 29q-78 0 -140 -60v-25q0 -170 32.5 -257t114.5 -87q64 0 97.5 36t33.5 78q0 23 -15.5 34t-65.5 11v24h263v-24q-58 0 -80 -45q-16 -30 -24 -44t-27.5 -36t-41 -32
t-58 -18t-84.5 -8q-135 0 -204 100.5t-69 268.5q0 167 69 268q61 90 175 100l-8 6q-18 15 -29.5 25t-24 20.5t-20 17t-15 13.5t-12 11t-7.5 8t-4.5 7t-1.5 6q0 10 20.5 27t40.5 17q12 0 24.5 -15t36.5 -58t30 -53l54 109q9 19 85 19q13 0 13 -10q0 -18 -5.5 -59t-12.5 -41
h-28z" />
    <glyph glyph-name="ecaron" unicode="&#x11b;" horiz-adv-x="467" 
d="M379 573q-31 0 -46.5 -4.5t-21.5 -9.5q-5 -5 -17 -25q-6 -10 -12 -18q51 -25 99 -73l-100 -52q-49 58 -57 72q-47 -31 -63 -62t-16 -84q0 -16 3 -31h205v-25h-199q13 -42 44.5 -83t63.5 -75t41 -54q51 38 63 78l56 -21q-63 -83 -167 -120q-87 38 -149.5 121.5
t-62.5 149.5q0 37 21 83q22 48 76 102q48 47 111 73l-16 14q-18 15 -29.5 25t-24 20.5t-20 17t-15 13.5t-12 11t-7.5 8t-4.5 7t-1.5 6q0 10 20.5 27t40.5 17q12 0 24.5 -15t36.5 -58t30 -53l54 109q9 19 85 19q13 0 13 -10q0 -18 -5.5 -59t-12.5 -41h-28z" />
    <glyph glyph-name="Gcommaaccent" unicode="&#x122;" horiz-adv-x="691" 
d="M367 -102q0 -50 -17.5 -98t-31.5 -68t-25 -31h-25q23 51 23 91q0 12 -12.5 52t-12.5 74q0 10 10 10h81q10 0 10 -10v-20zM451 523q0 90 -31 135t-101 45q-42 0 -70 -23.5t-42 -72t-19.5 -106.5t-5.5 -143q0 -86 5.5 -143.5t19.5 -106t42 -71.5t70 -23q70 0 101 45.5
t31 135.5q0 44 -11 54.5t-60 10.5v24h263v-24q-10 0 -17.5 -0.5t-14 -0.5t-10.5 -2t-7.5 -3t-6 -5t-4 -6t-3 -8.5t-2.5 -10t-3 -13.5t-3 -16q-23 -108 -79 -156.5t-176 -48.5q-134 0 -198.5 99.5t-64.5 269.5q0 169 64.5 269t198.5 100q121 0 177.5 -49t77.5 -156h-121z" />
    <glyph glyph-name="gcommaaccent" unicode="&#x123;" horiz-adv-x="539" 
d="M202 626q0 50 18 98t32 68t25 31h24q-22 -49 -22 -91q0 -12 12 -52t12 -74q0 -4 -3 -7.5t-7 -3.5h-81q-4 0 -7 3.5t-3 7.5v20zM299 391q-47 55 -56 72q-47 -31 -63 -62t-16 -84q0 -44 21 -87.5t47 -71t53.5 -59t36.5 -50.5q30 22 42 32v202h102v-313q0 -91 -41 -133
t-126 -42q-29 0 -62 20.5t-55 20.5q-9 0 -34 -25.5t-37 -25.5q-20 0 -42.5 18t-22.5 40q0 13 24 33t44 20q37 0 66.5 -11.5t45 -26t36.5 -26t43 -11.5q59 0 59 117v94q-42 -29 -91 -46q-87 38 -149.5 121.5t-62.5 146.5q0 38 21.5 86.5t76 102t129.5 79.5q56 -24 111 -79z
" />
    <glyph glyph-name="Imacron" unicode="&#x12a;" horiz-adv-x="386" 
d="M46 819h294v-55h-294v55zM254 88q0 -44 11 -54t60 -10v-24h-264v24q49 0 60 10t11 54v540q0 44 -11 54.5t-60 10.5v24h264v-24q-49 0 -60 -10.5t-11 -54.5v-540z" />
    <glyph glyph-name="imacron" unicode="&#x12b;" horiz-adv-x="283" 
d="M-5 659h294v-55h-294v55zM90 512h103v-512h-103v512z" />
    <glyph glyph-name="Iogonek" unicode="&#x12e;" horiz-adv-x="386" 
d="M254 88q0 -44 11 -54t60 -10v-24l-45 -75q-18 -32 -18 -56q0 -29 21.5 -48.5t48.5 -19.5q45 0 75 51l20 -8q-5 -22 -17 -42q-52 -91 -119 -91q-33 0 -60.5 25t-27.5 70q0 40 20 71l79 123h-241v24q49 0 60 10t11 54v540q0 44 -11 54.5t-60 10.5v24h264v-24
q-49 0 -60 -10.5t-11 -54.5v-540z" />
    <glyph glyph-name="iogonek" unicode="&#x12f;" horiz-adv-x="225" 
d="M171 -199q45 0 75 51l20 -8q-5 -22 -17 -42q-52 -91 -119 -91q-33 0 -60.5 25t-27.5 70q0 40 20 71l79 123h-80v512h103v-512l-45 -75q-18 -32 -18 -56q0 -29 21.5 -48.5t48.5 -19.5z" />
    <glyph glyph-name="Kcommaaccent" unicode="&#x136;" horiz-adv-x="709" 
d="M405 -92q0 -50 -17.5 -98t-31.5 -68t-25 -31h-25q23 51 23 91q0 12 -12.5 52t-12.5 74q0 10 10 10h81q10 0 10 -10v-20zM132 628q0 44 -11 54.5t-60 10.5v24h264v-24q-49 0 -60 -10.5t-11 -54.5v-257h8q91 0 143 80t52 177q0 44 -11 54.5t-60 10.5v24h263v-24
q-10 0 -17.5 -0.5t-14 -0.5t-10.5 -2t-7.5 -3t-6 -5t-4 -6t-3 -8.5t-2 -10t-2.5 -13.5t-3 -16q-9 -48 -22.5 -86t-37 -76.5t-62.5 -66t-91 -41.5q52 -14 91 -41.5t62.5 -65.5t37 -76t22.5 -86q1 -6 3 -16t2.5 -13.5t2 -10t3 -8.5t4 -6t6 -5t7.5 -3t10.5 -2t14 -0.5
t17.5 -0.5v-24h-263v24q49 0 60 10.5t11 54.5q0 97 -52 177t-143 80h-8v-258q0 -44 11 -54t60 -10v-24h-264v24q49 0 60 10t11 54v540z" />
    <glyph glyph-name="kcommaaccent" unicode="&#x137;" horiz-adv-x="498" 
d="M306 -92q0 -50 -17.5 -98t-31.5 -68t-25 -31h-25q23 51 23 91q0 12 -12.5 52t-12.5 74q0 10 10 10h81q10 0 10 -10v-20zM79 512h102v-212q74 25 111 75t37 137h102v-25q0 -79 -53.5 -124t-157.5 -78q102 -20 157.5 -86t55.5 -199h-102q0 125 -44 188.5t-106 76.5v-265
h-102v512z" />
    <glyph glyph-name="Lacute" unicode="&#x139;" horiz-adv-x="562" 
d="M387 984l64 -71l-231 -160l-25 27zM325 717v-24q-49 0 -60 -10t-11 -54v-539q0 -44 11 -54.5t60 -10.5q54 0 87.5 51.5t33.5 105.5h25q0 -38 13.5 -77.5t26.5 -59.5l13 -20v-25h-463v25q49 0 60 10.5t11 54.5v539q0 44 -11 54t-60 10v24h264z" />
    <glyph glyph-name="lacute" unicode="&#x13a;" horiz-adv-x="452" 
d="M326 815l64 -71l-231 -160l-25 27zM181 25h68q68 0 87 23t19 106h25q0 -38 8 -70.5t16 -45.5l9 -13v-25h-334v512h102v-487z" />
    <glyph glyph-name="Lcommaaccent" unicode="&#x13b;" horiz-adv-x="562" 
d="M343 -92q0 -50 -17.5 -98t-31.5 -68t-25 -31h-25q23 51 23 91q0 12 -12.5 52t-12.5 74q0 10 10 10h81q10 0 10 -10v-20zM325 717v-24q-49 0 -60 -10t-11 -54v-539q0 -44 11 -54.5t60 -10.5q54 0 87.5 51.5t33.5 105.5h25q0 -38 13.5 -77.5t26.5 -59.5l13 -20v-25h-463v25
q49 0 60 10.5t11 54.5v539q0 44 -11 54t-60 10v24h264z" />
    <glyph glyph-name="lcommaaccent" unicode="&#x13c;" horiz-adv-x="452" 
d="M296 -92q0 -50 -17.5 -98t-31.5 -68t-25 -31h-25q23 51 23 91q0 12 -12.5 52t-12.5 74q0 10 10 10h81q10 0 10 -10v-20zM181 25h68q68 0 87 23t19 106h25q0 -38 8 -70.5t16 -45.5l9 -13v-25h-334v512h102v-487z" />
    <glyph glyph-name="Lcaron" unicode="&#x13d;" horiz-adv-x="562" 
d="M484 766q0 -50 -18 -98t-32 -68t-25 -31h-24q22 49 22 91q0 12 -12 52t-12 74q0 4 3 7.5t7 3.5h81q4 0 7 -3.5t3 -7.5v-20zM325 717v-24q-49 0 -60 -10t-11 -54v-539q0 -44 11 -54.5t60 -10.5q54 0 87.5 51.5t33.5 105.5h25q0 -38 13.5 -77.5t26.5 -59.5l13 -20v-25h-463
v25q49 0 60 10.5t11 54.5v539q0 44 -11 54t-60 10v24h264z" />
    <glyph glyph-name="lcaron" unicode="&#x13e;" horiz-adv-x="452" 
d="M363 555q0 -50 -18 -98t-32 -68t-25 -31h-24q22 49 22 91q0 12 -12 52t-12 74q0 4 3 7.5t7 3.5h81q4 0 7 -3.5t3 -7.5v-20zM181 25h68q68 0 87 23t19 106h25q0 -38 8 -70.5t16 -45.5l9 -13v-25h-334v512h102v-487z" />
    <glyph glyph-name="Lslash" unicode="&#x141;" horiz-adv-x="562" 
d="M325 717v-24q-49 0 -60 -10t-11 -54v-206l53 37l23 -34l-76 -53v-283q0 -44 11 -54.5t60 -10.5q54 0 87.5 51.5t33.5 105.5h25q0 -38 13.5 -77.5t26.5 -59.5l13 -20v-25h-463v25q49 0 60 10.5t11 54.5v197l-43 -30l-24 34l67 47v291q0 44 -11 54t-60 10v24h264z" />
    <glyph glyph-name="lslash" unicode="&#x142;" horiz-adv-x="477" 
d="M206 25h68q68 0 87 23t19 106h25q0 -38 8 -70.5t16 -45.5l9 -13v-25h-334v209l-49 -34l-24 34l73 51v252h102v-181l67 47l23 -34l-90 -63v-256z" />
    <glyph glyph-name="Nacute" unicode="&#x143;" horiz-adv-x="710" 
d="M528 984l64 -71l-231 -160l-25 27zM579 88q0 -44 10.5 -54t59.5 -10v-24h-263v24q49 0 60 10t11 54v130l-203 243v-373q0 -44 11 -54t60 -10v-24h-264v24q49 0 60 10t11 54v540q0 44 -11 54.5t-60 10.5v24h264v-24q-49 0 -60 -10.5t-11 -54.5v-118l203 -241v359
q0 44 -11 54.5t-60 10.5v24h263v-24q-48 0 -59 -10t-11 -55v-540z" />
    <glyph glyph-name="nacute" unicode="&#x144;" horiz-adv-x="501" 
d="M410 815l64 -71l-231 -160l-25 27zM164 0h-103v512h103v-73l174 -249v322h102v-512h-102v123l-174 248v-371z" />
    <glyph glyph-name="Ncommaaccent" unicode="&#x145;" horiz-adv-x="710" 
d="M405 -92q0 -50 -17.5 -98t-31.5 -68t-25 -31h-25q23 51 23 91q0 12 -12.5 52t-12.5 74q0 10 10 10h81q10 0 10 -10v-20zM579 88q0 -44 10.5 -54t59.5 -10v-24h-263v24q49 0 60 10t11 54v130l-203 243v-373q0 -44 11 -54t60 -10v-24h-264v24q49 0 60 10t11 54v540
q0 44 -11 54.5t-60 10.5v24h264v-24q-49 0 -60 -10.5t-11 -54.5v-118l203 -241v359q0 44 -11 54.5t-60 10.5v24h263v-24q-48 0 -59 -10t-11 -55v-540z" />
    <glyph glyph-name="ncommaaccent" unicode="&#x146;" horiz-adv-x="501" 
d="M301 -92q0 -50 -17.5 -98t-31.5 -68t-25 -31h-25q23 51 23 91q0 12 -12.5 52t-12.5 74q0 10 10 10h81q10 0 10 -10v-20zM164 0h-103v512h103v-73l174 -249v322h102v-512h-102v123l-174 248v-371z" />
    <glyph glyph-name="Ncaron" unicode="&#x147;" horiz-adv-x="710" 
d="M463 777q-31 0 -46.5 -4.5t-21.5 -9.5t-17.5 -24.5t-23.5 -34.5q-17 14 -35 29t-29.5 25t-24 20.5t-20 17t-15 13.5t-12 11t-7.5 8t-4.5 7t-1.5 6q0 10 20.5 27t40.5 17q12 0 24.5 -15t36.5 -58t30 -53l54 109q9 19 85 19q13 0 13 -10q0 -18 -5.5 -59t-12.5 -41h-28z
M579 88q0 -44 10.5 -54t59.5 -10v-24h-263v24q49 0 60 10t11 54v130l-203 243v-373q0 -44 11 -54t60 -10v-24h-264v24q49 0 60 10t11 54v540q0 44 -11 54.5t-60 10.5v24h264v-24q-49 0 -60 -10.5t-11 -54.5v-118l203 -241v359q0 44 -11 54.5t-60 10.5v24h263v-24
q-48 0 -59 -10t-11 -55v-540z" />
    <glyph glyph-name="ncaron" unicode="&#x148;" horiz-adv-x="501" 
d="M373 573q-31 0 -46.5 -4.5t-21.5 -9.5t-17.5 -24.5t-23.5 -34.5q-17 14 -35 29t-29.5 25t-24 20.5t-20 17t-15 13.5t-12 11t-7.5 8t-4.5 7t-1.5 6q0 10 20.5 27t40.5 17q12 0 24.5 -15t36.5 -58t30 -53l54 109q9 19 85 19q13 0 13 -10q0 -18 -5.5 -59t-12.5 -41h-28z
M164 0h-103v512h103v-73l174 -249v322h102v-512h-102v123l-174 248v-371z" />
    <glyph glyph-name="Omacron" unicode="&#x14c;" horiz-adv-x="633" 
d="M170 819h294v-55h-294v55zM317 703q-43 0 -71 -23.5t-42 -72t-19.5 -106.5t-5.5 -143q0 -68 3 -117t12 -94t24 -73t40 -44t59 -16q42 0 70 23.5t42.5 72t20 106.5t5.5 143t-5.5 143.5t-20 106.5t-42.5 71t-70 23zM317 728q134 0 200 -100.5t66 -269.5t-66 -268.5
t-200 -99.5t-200 100t-66 269t66 269t200 100z" />
    <glyph glyph-name="omacron" unicode="&#x14d;" horiz-adv-x="552" 
d="M128 659h294v-55h-294v55zM315 49q43 32 57 63t14 84q0 43 -18.5 85.5t-41.5 70.5t-51 61t-38 50q-47 -31 -63 -62t-16 -84q0 -44 21 -87.5t46.5 -71t53 -59t36.5 -50.5zM282 522q87 -38 149.5 -121.5t62.5 -146.5q0 -38 -21.5 -86.5t-76 -102t-129.5 -79.5
q-87 38 -149.5 121.5t-62.5 146.5q0 38 21.5 86.5t76 102t129.5 79.5z" />
    <glyph glyph-name="Ohungarumlaut" unicode="&#x150;" horiz-adv-x="633" 
d="M579 984l64 -71l-231 -160l-25 27zM374 984l64 -71l-231 -160l-25 27zM317 703q-43 0 -71 -23.5t-42 -72t-19.5 -106.5t-5.5 -143q0 -68 3 -117t12 -94t24 -73t40 -44t59 -16q42 0 70 23.5t42.5 72t20 106.5t5.5 143t-5.5 143.5t-20 106.5t-42.5 71t-70 23zM317 728
q134 0 200 -100.5t66 -269.5t-66 -268.5t-200 -99.5t-200 100t-66 269t66 269t200 100z" />
    <glyph glyph-name="ohungarumlaut" unicode="&#x151;" horiz-adv-x="552" 
d="M539 815l64 -71l-231 -160l-25 27zM334 815l64 -71l-231 -160l-25 27zM315 49q43 32 57 63t14 84q0 43 -18.5 85.5t-41.5 70.5t-51 61t-38 50q-47 -31 -63 -62t-16 -84q0 -44 21 -87.5t46.5 -71t53 -59t36.5 -50.5zM282 522q87 -38 149.5 -121.5t62.5 -146.5
q0 -38 -21.5 -86.5t-76 -102t-129.5 -79.5q-87 38 -149.5 121.5t-62.5 146.5q0 38 21.5 86.5t76 102t129.5 79.5z" />
    <glyph glyph-name="OE" unicode="&#x152;" horiz-adv-x="1110" 
d="M1043 173q-37 0 -58 -19t-34 -45.5t-32 -53.5t-67 -46t-124 -19q-135 0 -207 105q-68 -105 -204 -105q-134 0 -200 100t-66 269t66 269t200 100q135 0 203 -105q72 105 208 105q48 0 84.5 -8t59 -18.5t41.5 -31.5t28.5 -36.5t23.5 -44.5q22 -44 78 -44v-24h-263v24
q50 0 65.5 11t15.5 33q0 42 -33.5 78t-97.5 36q-74 0 -107.5 -72t-38.5 -209q59 48 137 48q105 0 151 -19.5t72 -73.5q7 -16 10.5 -21.5t13.5 -19.5t25 -20t35 -6v-23h-263v23q38 0 57.5 7t23.5 15.5t4 24.5q0 28 -29 57t-98 29q-78 0 -140 -60v-25q0 -170 32.5 -257
t114.5 -87q64 0 97.5 36t33.5 78q0 23 -15.5 34t-65.5 11v24h263v-24zM317 703q-43 0 -71 -23.5t-42 -72t-19.5 -106.5t-5.5 -143q0 -68 3 -117t12 -94t24 -73t40 -44t59 -16q42 0 70 23.5t42.5 72t20 106.5t5.5 143t-5.5 143.5t-20 106.5t-42.5 71t-70 23z" />
    <glyph glyph-name="oe" unicode="&#x153;" horiz-adv-x="806" 
d="M620 391q-49 58 -57 72q-47 -31 -63 -62t-16 -84q0 -16 3 -31h205v-25h-199q13 -42 44.5 -83t63.5 -75t41 -54q51 38 63 78l56 -21q-63 -83 -167 -120q-92 41 -155 128q-65 -89 -172 -128q-87 38 -149.5 121.5t-62.5 146.5q0 38 21.5 86.5t76 102t129.5 79.5
q90 -41 154 -128q65 89 172 128q58 -25 112 -79zM315 49q43 32 57 63t14 84q0 43 -18.5 85.5t-41.5 70.5t-51 61t-38 50q-47 -31 -63 -62t-16 -84q0 -44 21 -87.5t46.5 -71t53 -59t36.5 -50.5z" />
    <glyph glyph-name="Racute" unicode="&#x154;" horiz-adv-x="698" 
d="M456 984l64 -71l-231 -160l-25 27zM325 0h-264v24q49 0 60 10t11 54v541q0 44 -11 54t-60 10v24h562v-24q-49 0 -60 -10t-11 -54v-167q-110 0 -177.5 -19t-117.5 -72q66 -1 118.5 -17.5t86 -43t59 -64.5t38.5 -75t22 -82q1 -6 3 -16t2.5 -13.5t2 -10t3 -8.5t4 -6t6 -5
t7.5 -3t10.5 -2t14 -0.5t17.5 -0.5v-24h-263v24q49 0 60 10.5t11 54.5q0 94 -57 175t-148 82v-258q0 -44 11 -54t60 -10v-24zM254 417q67 56 176 69v143q0 44 -11 54t-60 10h-34q-49 0 -60 -10t-11 -54v-212z" />
    <glyph glyph-name="racute" unicode="&#x155;" horiz-adv-x="458" 
d="M351 815l64 -71l-231 -160l-25 27zM79 512h102v-63q54 49 124 73q58 -25 112 -79l-101 -52q-47 55 -56 72q-47 -31 -63 -62t-16 -84v-317h-102v512z" />
    <glyph glyph-name="Rcommaaccent" unicode="&#x156;" horiz-adv-x="698" 
d="M406 -92q0 -50 -17.5 -98t-31.5 -68t-25 -31h-25q23 51 23 91q0 12 -12.5 52t-12.5 74q0 10 10 10h81q10 0 10 -10v-20zM325 0h-264v24q49 0 60 10t11 54v541q0 44 -11 54t-60 10v24h562v-24q-49 0 -60 -10t-11 -54v-167q-110 0 -177.5 -19t-117.5 -72q66 -1 118.5 -17.5
t86 -43t59 -64.5t38.5 -75t22 -82q1 -6 3 -16t2.5 -13.5t2 -10t3 -8.5t4 -6t6 -5t7.5 -3t10.5 -2t14 -0.5t17.5 -0.5v-24h-263v24q49 0 60 10.5t11 54.5q0 94 -57 175t-148 82v-258q0 -44 11 -54t60 -10v-24zM254 417q67 56 176 69v143q0 44 -11 54t-60 10h-34
q-49 0 -60 -10t-11 -54v-212z" />
    <glyph glyph-name="rcommaaccent" unicode="&#x157;" horiz-adv-x="458" 
d="M180 -92q0 -50 -17.5 -98t-31.5 -68t-25 -31h-25q23 51 23 91q0 12 -12.5 52t-12.5 74q0 10 10 10h81q10 0 10 -10v-20zM79 512h102v-63q54 49 124 73q58 -25 112 -79l-101 -52q-47 55 -56 72q-47 -31 -63 -62t-16 -84v-317h-102v512z" />
    <glyph glyph-name="Rcaron" unicode="&#x158;" horiz-adv-x="698" 
d="M461 777q-31 0 -46.5 -4.5t-21.5 -9.5q-5 -5 -17 -25q-7 -12 -14 -21h261v-24q-49 0 -60 -10t-11 -54v-167q-110 0 -177.5 -19t-117.5 -72q66 -1 118.5 -17.5t86 -43t59 -64.5t38.5 -75t22 -82q1 -6 3 -16t2.5 -13.5t2 -10t3 -8.5t4 -6t6 -5t7.5 -3t10.5 -2t14 -0.5
t17.5 -0.5v-24h-263v24q49 0 60 10.5t11 54.5q0 94 -57 175t-148 82v-258q0 -44 11 -54t60 -10v-24h-264v24q49 0 60 10t11 54v541q0 44 -11 54t-60 10v24h275q-9 8 -19 16q-18 15 -29.5 25t-24 20.5t-20 17t-15 13.5t-12 11t-7.5 8t-4.5 7t-1.5 6q0 10 20.5 27t40.5 17
q12 0 24.5 -15t36.5 -58t30 -53l54 109q9 19 85 19q13 0 13 -10q0 -18 -5.5 -59t-12.5 -41h-28zM254 417q67 56 176 69v143q0 44 -11 54t-60 10h-34q-49 0 -60 -10t-11 -54v-212z" />
    <glyph glyph-name="rcaron" unicode="&#x159;" horiz-adv-x="458" 
d="M379 573q-31 0 -46.5 -4.5t-21.5 -9.5q-5 -5 -17 -25q-7 -12 -15 -22l26 10q58 -25 112 -79l-101 -52q-47 55 -56 72q-47 -31 -63 -62t-16 -84v-317h-102v512h102v-63q38 34 83 56q-14 12 -29 24q-18 15 -29.5 25t-24 20.5t-20 17t-15 13.5t-12 11t-7.5 8t-4.5 7t-1.5 6
q0 10 20.5 27t40.5 17q12 0 24.5 -15t36.5 -58t30 -53l54 109q9 19 85 19q13 0 13 -10q0 -18 -5.5 -59t-12.5 -41h-28z" />
    <glyph glyph-name="Sacute" unicode="&#x15a;" horiz-adv-x="646" 
d="M456 984l64 -71l-231 -160l-25 27zM217 33q-12 0 -42.5 -29t-45.5 -29q-25 0 -52.5 24.5t-27.5 53.5q0 12 30 41t54 29t51.5 -16t50 -34.5t59.5 -34.5t79 -16q39 0 64.5 35.5t25.5 108.5q0 173 -160 173q-64 0 -108 13.5t-66 39.5t-30.5 55t-8.5 68q0 101 58.5 156.5
t169.5 55.5q62 0 108.5 -19t72.5 -50.5t38.5 -68.5t12.5 -77q0 -14 -61 -14t-61 14q0 99 -26.5 144.5t-83.5 45.5q-46 0 -76.5 -48t-30.5 -118q0 -34 4 -59.5t15.5 -52.5t38 -42t65.5 -15q251 0 251 -177q0 -100 -56.5 -150t-163.5 -50q-47 0 -81 21.5t-67 21.5z" />
    <glyph glyph-name="sacute" unicode="&#x15b;" horiz-adv-x="570" 
d="M443 815l64 -71l-231 -160l-25 27zM191 39q-9 0 -36 -29t-39 -29q-20 0 -42.5 18t-22.5 40q0 10 27 38.5t46 28.5q28 0 100.5 -45t110.5 -45q30 0 51.5 36.5t21.5 93.5q0 133 -128 133q-83 0 -130 33.5t-47 82.5q0 71 46.5 99t142.5 28q95 0 140 -43t45 -102
q0 -11 -49 -11q-53 0 -53 11q0 64 -19 92.5t-64 28.5q-39 0 -62.5 -26.5t-23.5 -77.5q0 -35 25.5 -63t72.5 -28q108 0 157 -38.5t49 -99.5q0 -77 -49 -126t-132 -49q-31 0 -71 24.5t-67 24.5z" />
    <glyph glyph-name="Scedilla" unicode="&#x15e;" horiz-adv-x="646" 
d="M381 -68q37 -2 60.5 -20.5t23.5 -45.5q0 -71 -180 -71v20q39 0 67.5 13t28.5 32.5t-15 34t-36 14.5l26 81q-41 2 -72 22q-34 21 -67 21q-12 0 -42.5 -29t-45.5 -29q-25 0 -52.5 24.5t-27.5 53.5q0 12 30 41t54 29t51.5 -16t50 -34.5t59.5 -34.5t79 -16q39 0 64.5 35.5
t25.5 108.5q0 173 -160 173q-64 0 -108 13.5t-66 39.5t-30.5 55t-8.5 68q0 101 58.5 156.5t169.5 55.5q62 0 108.5 -19t72.5 -50.5t38.5 -68.5t12.5 -77q0 -14 -61 -14t-61 14q0 99 -26.5 144.5t-83.5 45.5q-46 0 -76.5 -48t-30.5 -118q0 -34 4 -59.5t15.5 -52.5t38 -42
t65.5 -15q251 0 251 -177q0 -100 -57 -150q-46 -41 -128 -49z" />
    <glyph glyph-name="scedilla" unicode="&#x15f;" horiz-adv-x="570" 
d="M315 -68q37 -2 60.5 -20.5t23.5 -45.5q0 -71 -180 -71v20q39 0 67.5 13t28.5 32.5t-15 34t-36 14.5l28 89q-16 6 -34 16q-40 25 -67 25q-9 0 -36 -29t-39 -29q-20 0 -42.5 18t-22.5 40q0 10 27 38.5t46 28.5q28 0 100.5 -45t110.5 -45q30 0 51.5 36.5t21.5 93.5
q0 133 -128 133q-83 0 -130 33.5t-47 82.5q0 71 46.5 99t142.5 28q95 0 140 -43t45 -102q0 -11 -49 -11q-53 0 -53 11q0 64 -19 92.5t-64 28.5q-39 0 -62.5 -26.5t-23.5 -77.5q0 -35 25.5 -63t72.5 -28q108 0 157 -38.5t49 -99.5q0 -77 -49 -126q-48 -48 -127 -49z" />
    <glyph glyph-name="Scaron" unicode="&#x160;" horiz-adv-x="646" 
d="M428 777q-31 0 -46.5 -4.5t-21.5 -9.5q-9 -8 -18 -25q-3 -6 -7 -11q52 -3 91 -19q47 -19 73 -50.5t38.5 -68.5t12.5 -77q0 -14 -61 -14t-61 14q0 99 -26.5 144.5t-83.5 45.5q-46 0 -76.5 -48t-30.5 -118q0 -35 4 -60t16 -52q11 -27 37.5 -42t65.5 -15q251 0 251 -177
q0 -100 -57 -150q-56 -50 -163 -50q-47 0 -81 22q-34 21 -67 21q-12 0 -42.5 -29t-45.5 -29q-25 0 -53 25q-27 24 -27 53q0 12 30 41t54 29t51.5 -16t50 -34.5t59.5 -34.5t79 -16q39 0 64.5 35.5t25.5 108.5q0 173 -160 173q-64 0 -108 13.5t-66 39.5t-30.5 55t-8.5 68
q0 103 58 157q52 48 144 54q-3 3 -8 7t-30 25q-11 10 -23.5 20.5t-20 17t-14.5 13.5q-8 7 -12 11q-5 4 -8 8t-4.5 7t-1.5 6q0 10 20.5 27t40.5 17q12 0 24.5 -15t36.5 -58t30 -53l54 109q9 19 85 19q13 0 13 -10q0 -18 -6 -59q-5 -41 -12 -41h-28z" />
    <glyph glyph-name="scaron" unicode="&#x161;" horiz-adv-x="570" 
d="M403 573q-31 0 -46.5 -4.5t-21.5 -9.5q-5 -5 -17 -25q-4 -7 -8 -12q82 -4 122 -43q45 -43 45 -102q0 -11 -49 -11q-53 0 -53 11q0 64 -19 92.5t-64 28.5q-39 0 -62.5 -26.5t-23.5 -77.5q0 -35 25.5 -63t72.5 -28q108 0 157 -38.5t49 -99.5q0 -77 -49 -126t-132 -49
q-31 0 -71 24.5t-67 24.5q-9 0 -36 -29t-39 -29q-20 0 -42.5 18t-22.5 40q0 10 27 38.5t46 28.5q28 0 100.5 -45t110.5 -45q30 0 51.5 36.5t21.5 93.5q0 133 -128 133q-83 0 -130 33.5t-47 82.5q1 71 47 99q40 24 118 28q-4 4 -9 7q-18 15 -29.5 25t-24 20.5t-20 17
t-15 13.5t-12 11t-7.5 8t-4.5 7t-1.5 6q0 10 20.5 27t40.5 17q12 0 24.5 -15t36.5 -58t30 -53l54 109q9 19 85 19q13 0 13 -10q0 -18 -5.5 -59t-12.5 -41h-28z" />
    <glyph glyph-name="Tcommaaccent" unicode="&#x162;" horiz-adv-x="658" 
d="M332 -68q38 -2 61 -20.5t23 -45.5q0 -71 -180 -71v20q40 0 68 13t28 32.5t-15 34t-35 14.5l28 91h-112v24q49 0 59.5 10t10.5 54v539q0 45 -11 55t-59 10q-29 0 -54 -54t-25 -103h-25q0 38 -13 77.5t-27 59.5l-13 20v25h576v-25q-6 -8 -15 -22t-23.5 -55.5t-14.5 -79.5
h-24q0 49 -25 103t-54 54q-49 0 -60 -10.5t-11 -54.5v-539q0 -44 11 -54t60 -10v-24h-107z" />
    <glyph glyph-name="tcommaaccent" unicode="&#x163;" horiz-adv-x="503" 
d="M259 -68q37 -2 60.5 -20.5t23.5 -45.5q0 -71 -180 -71v20q39 0 67.5 13t28.5 32.5t-15 34t-36 14.5l29 91h-39v487q-40 0 -59 -3t-34.5 -16t-19.5 -38t-4 -72h-25q0 38 -8 70.5t-16 45.5l-8 13v25h450v-25q-33 -43 -33 -129h-24q0 47 -4 72t-19.5 38t-34.5 16t-59 3v-487
h-19z" />
    <glyph glyph-name="Tcaron" unicode="&#x164;" horiz-adv-x="658" 
d="M439 777q-31 0 -46.5 -4.5t-21.5 -9.5q-5 -5 -17 -25q-7 -12 -14 -21h277v-25q-6 -8 -15 -22t-23.5 -55.5t-14.5 -79.5h-24q0 49 -25 103t-54 54q-49 0 -60 -10.5t-11 -54.5v-539q0 -44 11 -54t60 -10v-24h-263v24q49 0 59.5 10t10.5 54v539q0 45 -11 55t-59 10
q-29 0 -54 -54t-25 -103h-25q0 38 -13 77.5t-27 59.5l-13 20v25h273q-9 8 -19 16q-18 15 -29.5 25t-24 20.5t-20 17t-15 13.5t-12 11t-7.5 8t-4.5 7t-1.5 6q0 10 20.5 27t40.5 17q12 0 24.5 -15t36.5 -58t30 -53l54 109q9 19 85 19q13 0 13 -10q0 -18 -5.5 -59t-12.5 -41
h-28z" />
    <glyph glyph-name="tcaron" unicode="&#x165;" horiz-adv-x="503" 
d="M361 573q-31 0 -46.5 -4.5t-21.5 -9.5q-5 -5 -17 -25q-7 -12 -15 -22h213v-25q-33 -43 -33 -129h-24q0 47 -4 72t-19.5 38t-34.5 16t-59 3v-487h-102v487q-40 0 -59 -3t-34.5 -16t-19.5 -38t-4 -72h-25q0 38 -8 70.5t-16 45.5l-8 13v25h213q-10 8 -20 17q-18 15 -29.5 25
t-24 20.5t-20 17t-15 13.5t-12 11t-7.5 8t-4.5 7t-1.5 6q0 10 20.5 27t40.5 17q12 0 24.5 -15t36.5 -58t30 -53l54 109q9 19 85 19q13 0 13 -10q0 -18 -5.5 -59t-12.5 -41h-28z" />
    <glyph glyph-name="Umacron" unicode="&#x16a;" horiz-adv-x="731" 
d="M207 819h294v-55h-294v55zM353 -10q-139 0 -193 78.5t-54 269.5v290q0 45 -11 55t-59 10v24h263v-24q-49 0 -60 -10.5t-11 -54.5v-338q0 -54 2 -89t9 -74t20 -61.5t36.5 -37t57.5 -14.5t57.5 14.5t36.5 37t20 61.5t9 74t2 89v338q0 45 -11 55t-59 10v24h263v-24
q-49 0 -60 -10.5t-11 -54.5v-290q0 -191 -54 -269.5t-193 -78.5z" />
    <glyph glyph-name="umacron" unicode="&#x16b;" horiz-adv-x="549" 
d="M142 659h294v-55h-294v55zM51 340q0 33 5.5 63t13.5 49t16 34q8 14 14 20l6 6h99q-6 -8 -14.5 -22.5t-22.5 -59t-14 -88.5q0 -120 41 -203.5t112 -83.5q68 0 98.5 67t30.5 175q0 46 -17 83t-33.5 68t-16.5 64h100q25 -41 25 -96q0 -96 -12 -171t-32 -122t-47.5 -77.5
t-56.5 -43t-61 -12.5q-40 0 -80.5 22t-75.5 63.5t-56.5 110.5t-21.5 154z" />
    <glyph glyph-name="Uring" unicode="&#x16e;" horiz-adv-x="731" 
d="M291 815q0 -27 18.5 -45.5t45.5 -18.5t46 18.5t19 45.5t-19 46t-46 19t-45.5 -19t-18.5 -46zM259 815q0 39 28.5 67.5t67.5 28.5t67.5 -28.5t28.5 -67.5t-28.5 -67.5t-67.5 -28.5t-67.5 28.5t-28.5 67.5zM353 -10q-139 0 -193 78.5t-54 269.5v290q0 45 -11 55t-59 10v24
h263v-24q-49 0 -60 -10.5t-11 -54.5v-338q0 -54 2 -89t9 -74t20 -61.5t36.5 -37t57.5 -14.5t57.5 14.5t36.5 37t20 61.5t9 74t2 89v338q0 45 -11 55t-59 10v24h263v-24q-49 0 -60 -10.5t-11 -54.5v-290q0 -191 -54 -269.5t-193 -78.5z" />
    <glyph glyph-name="uring" unicode="&#x16f;" horiz-adv-x="549" 
d="M228 610q0 -27 18.5 -45.5t45.5 -18.5t46 18.5t19 45.5t-19 46t-46 19t-45.5 -19t-18.5 -46zM196 610q0 39 28.5 67.5t67.5 28.5t67.5 -28.5t28.5 -67.5t-28.5 -67.5t-67.5 -28.5t-67.5 28.5t-28.5 67.5zM51 340q0 33 5.5 63t13.5 49t16 34q8 14 14 20l6 6h99
q-6 -8 -14.5 -22.5t-22.5 -59t-14 -88.5q0 -120 41 -203.5t112 -83.5q68 0 98.5 67t30.5 175q0 46 -17 83t-33.5 68t-16.5 64h100q25 -41 25 -96q0 -96 -12 -171t-32 -122t-47.5 -77.5t-56.5 -43t-61 -12.5q-40 0 -80.5 22t-75.5 63.5t-56.5 110.5t-21.5 154z" />
    <glyph glyph-name="Uhungarumlaut" unicode="&#x170;" horiz-adv-x="731" 
d="M618 984l64 -71l-231 -160l-25 27zM413 984l64 -71l-231 -160l-25 27zM353 -10q-139 0 -193 78.5t-54 269.5v290q0 45 -11 55t-59 10v24h263v-24q-49 0 -60 -10.5t-11 -54.5v-338q0 -54 2 -89t9 -74t20 -61.5t36.5 -37t57.5 -14.5t57.5 14.5t36.5 37t20 61.5t9 74t2 89
v338q0 45 -11 55t-59 10v24h263v-24q-49 0 -60 -10.5t-11 -54.5v-290q0 -191 -54 -269.5t-193 -78.5z" />
    <glyph glyph-name="uhungarumlaut" unicode="&#x171;" horiz-adv-x="549" 
d="M539 815l64 -71l-231 -160l-25 27zM334 815l64 -71l-231 -160l-25 27zM51 340q0 33 5.5 63t13.5 49t16 34q8 14 14 20l6 6h99q-6 -8 -14.5 -22.5t-22.5 -59t-14 -88.5q0 -120 41 -203.5t112 -83.5q68 0 98.5 67t30.5 175q0 46 -17 83t-33.5 68t-16.5 64h100
q25 -41 25 -96q0 -96 -12 -171t-32 -122t-47.5 -77.5t-56.5 -43t-61 -12.5q-40 0 -80.5 22t-75.5 63.5t-56.5 110.5t-21.5 154z" />
    <glyph glyph-name="Uogonek" unicode="&#x172;" horiz-adv-x="731" 
d="M392 -199q45 0 75 51l20 -8q-5 -22 -17 -42q-52 -91 -119 -91q-33 0 -60.5 25t-27.5 70q0 40 20 71l73 113h-3q-139 0 -193 78.5t-54 269.5v290q0 45 -11 55t-59 10v24h263v-24q-49 0 -60 -10.5t-11 -54.5v-338q0 -54 2 -89t9 -74t20 -61.5t36.5 -37t57.5 -14.5
t57.5 14.5t36.5 37t20 61.5t9 74t2 89v338q0 45 -11 55t-59 10v24h263v-24q-49 0 -60 -10.5t-11 -54.5v-290q0 -192 -54 -270q-49 -71 -167 -77l-39 -66q-18 -32 -18 -56q0 -29 21.5 -48.5t48.5 -19.5z" />
    <glyph glyph-name="uogonek" unicode="&#x173;" horiz-adv-x="549" 
d="M314 -199q45 0 75 51l20 -8q-5 -22 -17 -42q-52 -91 -119 -91q-33 0 -60.5 25t-27.5 70q0 40 20 71l73 113q-36 2 -74 22q-40 22 -75 63.5t-56.5 110.5t-21.5 154q0 33 5.5 63t13.5 49t16 34q8 14 14 20l6 6h99q-6 -8 -14.5 -22.5t-22.5 -59t-14 -88.5q0 -120 41 -203.5
t112 -83.5q68 0 98.5 67t30.5 175q0 46 -17 83t-33.5 68t-16.5 64h100q25 -41 25 -96q0 -96 -12 -171t-32 -122t-48 -77q-28 -32 -56 -44q-21 -9 -44 -11l-40 -66q-18 -32 -18 -56q0 -29 21.5 -48.5t48.5 -19.5z" />
    <glyph glyph-name="Ydieresis" unicode="&#x178;" horiz-adv-x="620" 
d="M353 778q-10 0 -10 10v111q0 10 10 10h61q10 0 10 -10v-111q0 -10 -10 -10h-61zM204 778q-4 0 -7.5 3t-3.5 7v111q0 4 3.5 7t7.5 3h60q10 0 10 -10v-111q0 -10 -10 -10h-60zM279 39q-8 -31 -34.5 -41t-109.5 -10q-14 0 -14 12q0 20 6 65t14 45h85q32 0 42 4.5t14 22.5
l16 63l-203 428q-20 41 -38.5 53t-66.5 12v24h263v-24q-52 0 -52 -19q0 -11 16 -46l124 -261l84 327q2 9 7.5 13t32.5 7t81 3q14 0 14 -12q0 -20 -6 -65t-14 -45h-65q-30 0 -40.5 -6t-14.5 -22z" />
    <glyph glyph-name="Zacute" unicode="&#x179;" horiz-adv-x="565" 
d="M456 984l64 -71l-231 -160l-25 27zM524 717v-25h-1l-311 -667h194q55 0 87.5 -29.5t32.5 -70.5q0 -42 -37 -70t-112 -28l-45 5l4 22q32 0 52.5 23t20.5 49q0 27 -20.5 50.5t-52.5 23.5h-269l322 692h-128q-54 0 -88 -51.5t-34 -105.5h-24q0 38 -13.5 77.5t-27.5 59.5
l-13 20v25h463z" />
    <glyph glyph-name="zacute" unicode="&#x17a;" horiz-adv-x="468" 
d="M323 815l64 -71l-231 -160l-25 27zM210 -168l4 22q44 0 67 22t23 50q0 30 -20.5 52t-69.5 22h-151l227 487h-58q-68 0 -87 -23t-19 -106h-25q0 38 -8 70.5t-16 45.5l-8 13v25h346l-229 -487h98q55 0 87.5 -29.5t32.5 -70.5q0 -42 -37 -70t-112 -28z" />
    <glyph glyph-name="Zdotaccent" unicode="&#x17b;" horiz-adv-x="565" 
d="M261 779q-10 0 -10 10v110q0 4 3 7.5t7 3.5h61q4 0 7 -3.5t3 -7.5v-110q0 -10 -10 -10h-61zM524 717v-25h-1l-311 -667h194q55 0 87.5 -29.5t32.5 -70.5q0 -42 -37 -70t-112 -28l-45 5l4 22q32 0 52.5 23t20.5 49q0 27 -20.5 50.5t-52.5 23.5h-269l322 692h-128
q-54 0 -88 -51.5t-34 -105.5h-24q0 38 -13.5 77.5t-27.5 59.5l-13 20v25h463z" />
    <glyph glyph-name="zdotaccent" unicode="&#x17c;" horiz-adv-x="468" 
d="M219 584q-10 0 -10 10v110q0 4 3 7.5t7 3.5h61q4 0 7 -3.5t3 -7.5v-110q0 -10 -10 -10h-61zM210 -168l4 22q44 0 67 22t23 50q0 30 -20.5 52t-69.5 22h-151l227 487h-58q-68 0 -87 -23t-19 -106h-25q0 38 -8 70.5t-16 45.5l-8 13v25h346l-229 -487h98q55 0 87.5 -29.5
t32.5 -70.5q0 -42 -37 -70t-112 -28z" />
    <glyph glyph-name="Zcaron" unicode="&#x17d;" horiz-adv-x="565" 
d="M412 777q-31 0 -46.5 -4.5t-21.5 -9.5t-18 -25q-7 -12 -13 -21h211v-25h-1l-311 -667h194q55 0 87.5 -29.5t32.5 -70.5q0 -42 -37 -70t-112 -28l-45 5l4 22q32 0 52.5 23t20.5 49q0 27 -20.5 50.5t-52.5 23.5h-269l322 692h-128q-54 0 -88 -51.5t-34 -105.5h-24
q0 38 -13.5 77.5t-27.5 59.5l-13 20v25h226q-9 8 -19 16q-18 15 -29.5 25t-24 20.5t-20 17t-15 13.5t-12 11t-7.5 8t-4.5 7t-1.5 6q0 10 20.5 27t40.5 17q12 0 24.5 -15t36.5 -58t30 -53l54 109q9 19 85 19q13 0 13 -10q0 -18 -5.5 -59t-12.5 -41h-28z" />
    <glyph glyph-name="zcaron" unicode="&#x17e;" horiz-adv-x="468" 
d="M210 -168l4 22q44 0 67 22t23 50q0 30 -20.5 52t-69.5 22h-151l227 487h-58q-68 0 -87 -23t-19 -106h-25q0 38 -8 70.5t-16 45.5l-8 13v25h169q-10 8 -20 17q-18 15 -29.5 25t-24 20.5t-20 17t-14.5 13.5q-8 7 -12 11q-5 4 -8 8t-4.5 7t-1.5 6q0 10 20.5 27t40.5 17
q12 0 24.5 -15t36.5 -58t30 -53l54 109q9 19 85 19q13 0 13 -10q0 -18 -6 -59q-5 -41 -12 -41h-28q-31 0 -46.5 -4.5t-21.5 -9.5q-7 -6 -18 -25q-7 -12 -14 -22h153l-229 -487h98q55 0 87.5 -29.5t32.5 -70.5q0 -42 -37 -70t-112 -28z" />
    <glyph glyph-name="longs" unicode="&#x17f;" horiz-adv-x="414" 
d="M186 544v-544h-102v487h-47v25h49q12 64 69 133t155 104q58 -25 112 -79l-100 -53q-49 58 -57 72q-48 -31 -63.5 -61.5t-15.5 -83.5z" />
    <glyph glyph-name="uni01EA" unicode="&#x1ea;" horiz-adv-x="633" 
d="M348 -199q45 0 75 51l20 -8q-5 -22 -17 -42q-52 -91 -119 -91q-33 0 -60.5 25t-27.5 70q0 40 20 71l73 113q-130 2 -195 100q-66 100 -66 269t66 269t200 100t200 -100.5t66 -269.5q0 -168 -66 -268q-61 -93 -182 -100l-39 -65q-18 -32 -18 -56q0 -29 21.5 -48.5
t48.5 -19.5zM317 703q-43 0 -71 -23.5t-42 -72t-19.5 -106.5t-5.5 -143q0 -68 3 -117t12 -94t24 -73t40 -44t59 -16q42 0 70 23.5t42.5 72t20 106.5t5.5 143t-5.5 143.5t-20 106.5t-42.5 71t-70 23z" />
    <glyph glyph-name="uni01EB" unicode="&#x1eb;" horiz-adv-x="552" 
d="M296 -199q45 0 75 51l20 -8q-5 -22 -17 -42q-52 -91 -119 -91q-33 0 -60.5 25t-27.5 70q0 40 20 71l72 112q-81 39 -141 119q-63 84 -63 146q0 38 21.5 86.5t76 102t129.5 79.5q87 -38 149.5 -121.5t62.5 -146.5q0 -38 -22 -86t-76 -102q-48 -47 -111 -73l-41 -68
q-18 -32 -18 -56q0 -29 21.5 -48.5t48.5 -19.5zM315 49q43 32 57 63t14 84q0 43 -18.5 85.5t-41.5 70.5t-51 61t-38 50q-47 -31 -63 -62t-16 -84q0 -44 21 -87.5t46.5 -71t53 -59t36.5 -50.5z" />
    <glyph glyph-name="Scommaaccent" unicode="&#x218;" horiz-adv-x="646" 
d="M406 -112q0 -50 -17.5 -98t-31.5 -68t-25 -31h-25q23 51 23 91q0 12 -12.5 52t-12.5 74q0 10 10 10h81q10 0 10 -10v-20zM217 33q-12 0 -42.5 -29t-45.5 -29q-25 0 -52.5 24.5t-27.5 53.5q0 12 30 41t54 29t51.5 -16t50 -34.5t59.5 -34.5t79 -16q39 0 64.5 35.5
t25.5 108.5q0 173 -160 173q-64 0 -108 13.5t-66 39.5t-30.5 55t-8.5 68q0 101 58.5 156.5t169.5 55.5q62 0 108.5 -19t72.5 -50.5t38.5 -68.5t12.5 -77q0 -14 -61 -14t-61 14q0 99 -26.5 144.5t-83.5 45.5q-46 0 -76.5 -48t-30.5 -118q0 -34 4 -59.5t15.5 -52.5t38 -42
t65.5 -15q251 0 251 -177q0 -100 -56.5 -150t-163.5 -50q-47 0 -81 21.5t-67 21.5z" />
    <glyph glyph-name="scommaaccent" unicode="&#x219;" horiz-adv-x="570" 
d="M366 -112q0 -50 -17.5 -98t-31.5 -68t-25 -31h-25q23 51 23 91q0 12 -12.5 52t-12.5 74q0 10 10 10h81q10 0 10 -10v-20zM191 39q-9 0 -36 -29t-39 -29q-20 0 -42.5 18t-22.5 40q0 10 27 38.5t46 28.5q28 0 100.5 -45t110.5 -45q30 0 51.5 36.5t21.5 93.5q0 133 -128 133
q-83 0 -130 33.5t-47 82.5q0 71 46.5 99t142.5 28q95 0 140 -43t45 -102q0 -11 -49 -11q-53 0 -53 11q0 64 -19 92.5t-64 28.5q-39 0 -62.5 -26.5t-23.5 -77.5q0 -35 25.5 -63t72.5 -28q108 0 157 -38.5t49 -99.5q0 -77 -49 -126t-132 -49q-31 0 -71 24.5t-67 24.5z" />
    <glyph glyph-name="uni021A" unicode="&#x21a;" horiz-adv-x="658" 
d="M381 -112q0 -50 -17.5 -98t-31.5 -68t-25 -31h-25q23 51 23 91q0 12 -12.5 52t-12.5 74q0 10 10 10h81q10 0 10 -10v-20zM461 0h-263v24q49 0 59.5 10t10.5 54v539q0 45 -11 55t-59 10q-29 0 -54 -54t-25 -103h-25q0 38 -13 77.5t-27 59.5l-13 20v25h576v-25
q-6 -8 -15 -22t-23.5 -55.5t-14.5 -79.5h-24q0 49 -25 103t-54 54q-49 0 -60 -10.5t-11 -54.5v-539q0 -44 11 -54t60 -10v-24z" />
    <glyph glyph-name="uni021B" unicode="&#x21b;" horiz-adv-x="503" 
d="M298 -112q0 -50 -17.5 -98t-31.5 -68t-25 -31h-25q23 51 23 91q0 12 -12.5 52t-12.5 74q0 10 10 10h81q10 0 10 -10v-20zM198 0v487q-40 0 -59 -3t-34.5 -16t-19.5 -38t-4 -72h-25q0 38 -8 70.5t-16 45.5l-8 13v25h450v-25q-33 -43 -33 -129h-24q0 47 -4 72t-19.5 38
t-34.5 16t-59 3v-487h-102z" />
    <glyph glyph-name="caron" unicode="&#x2c7;" horiz-adv-x="386" 
d="M299 573q-31 0 -46.5 -4.5t-21.5 -9.5t-17.5 -24.5t-23.5 -34.5q-17 14 -35 29t-29.5 25t-24 20.5t-20 17t-15 13.5t-12 11t-7.5 8t-4.5 7t-1.5 6q0 10 20.5 27t40.5 17q12 0 24.5 -15t36.5 -58t30 -53l54 109q9 19 85 19q13 0 13 -10q0 -18 -5.5 -59t-12.5 -41h-28z" />
    <glyph glyph-name="breve" unicode="&#x2d8;" horiz-adv-x="376" 
d="M188 559q-147 0 -147 58q0 21 10 33.5t25 12.5q21 0 29 -15t8 -47q28 -17 75 -17q21 0 40 4q20 4 28 8l8 5q0 32 8 47t29 15q15 0 25 -12.5t10 -33.5q0 -58 -148 -58z" />
    <glyph glyph-name="dotaccent" unicode="&#x2d9;" horiz-adv-x="161" 
d="M30 580q-10 0 -10 10v110q0 4 3 7.5t7 3.5h61q4 0 7 -3.5t3 -7.5v-110q0 -10 -10 -10h-61z" />
    <glyph glyph-name="ring" unicode="&#x2da;" horiz-adv-x="274" 
d="M73 641q0 -27 18.5 -45.5t45.5 -18.5t46 18.5t19 45.5t-19 46t-46 19t-45.5 -19t-18.5 -46zM41 641q0 39 28.5 67.5t67.5 28.5t67.5 -28.5t28.5 -67.5t-28.5 -67.5t-67.5 -28.5t-67.5 28.5t-28.5 67.5z" />
    <glyph glyph-name="ogonek" unicode="&#x2db;" horiz-adv-x="285" 
d="M160 -199q45 0 75 51l20 -8q-5 -22 -17 -42q-52 -91 -119 -91q-33 0 -60.5 25t-27.5 70q0 40 20 71l79 123h23l-45 -75q-18 -32 -18 -56q0 -29 21.5 -48.5t48.5 -19.5z" />
    <glyph glyph-name="hungarumlaut" unicode="&#x2dd;" horiz-adv-x="542" 
d="M233 786l64 -71l-231 -160l-25 27zM438 786l64 -71l-231 -160l-25 27z" />
    <glyph glyph-name="gravecomb" unicode="&#x300;" 
d="M-332 786l193 -204l-25 -27l-231 160z" />
    <glyph glyph-name="acutecomb" unicode="&#x301;" 
d="M4 786l64 -71l-231 -160l-25 27z" />
    <glyph glyph-name="uni0302" unicode="&#x302;" 
d="M-164 753l160 -171l-24 -27l-136 94l-136 -94l-25 27z" />
    <glyph glyph-name="tildecomb" unicode="&#x303;" 
d="M-56 530q-34 0 -90.5 22t-85.5 22l-10 -1q-19 -45 -43 -45q-11 0 -23 8.5t-12 26.5q0 11 3 20.5t16 19t34 9.5q34 0 90.5 -22t85.5 -22l10 1q19 45 43 45q7 0 14 -2.5t14 -10.5t7 -21q0 -11 -3 -21t-16 -19.5t-34 -9.5z" />
    <glyph glyph-name="uni0304" unicode="&#x304;" 
d="M-311 624h294v-55h-294v55z" />
    <glyph glyph-name="uni0306" unicode="&#x306;" 
d="M-167 559q-147 0 -147 58q0 21 10 33.5t25 12.5q21 0 29 -15t8 -47q28 -17 75 -17q21 0 40 4q20 4 28 8l8 5q0 32 8 47t29 15q15 0 25 -12.5t10 -33.5q0 -58 -148 -58z" />
    <glyph glyph-name="uni0307" unicode="&#x307;" 
d="M-197 580q-10 0 -10 10v110q0 4 3 7.5t7 3.5h61q4 0 7 -3.5t3 -7.5v-110q0 -10 -10 -10h-61z" />
    <glyph glyph-name="uni0308" unicode="&#x308;" 
d="M-120 579q-10 0 -10 10v111q0 10 10 10h61q10 0 10 -10v-111q0 -10 -10 -10h-61zM-269 579q-4 0 -7.5 3t-3.5 7v111q0 4 3.5 7t7.5 3h60q10 0 10 -10v-111q0 -10 -10 -10h-60z" />
    <glyph glyph-name="uni030A" unicode="&#x30a;" horiz-adv-x="274" 
d="M-229 641q0 -27 18.5 -45.5t45.5 -18.5t46 18.5t19 45.5t-19 46t-46 19t-45.5 -19t-18.5 -46zM-261 641q0 39 28.5 67.5t67.5 28.5t67.5 -28.5t28.5 -67.5t-28.5 -67.5t-67.5 -28.5t-67.5 28.5t-28.5 67.5z" />
    <glyph glyph-name="uni030B" unicode="&#x30b;" 
d="M106 786l64 -71l-231 -160l-25 27zM-99 786l64 -71l-231 -160l-25 27z" />
    <glyph glyph-name="uni030C" unicode="&#x30c;" 
d="M-55 573q-31 0 -46.5 -4.5t-21.5 -9.5t-17.5 -24.5t-23.5 -34.5q-17 14 -35 29t-29.5 25t-24 20.5t-20 17t-15 13.5t-12 11t-7.5 8t-4.5 7t-1.5 6q0 10 20.5 27t40.5 17q12 0 24.5 -15t36.5 -58t30 -53l54 109q9 19 85 19q13 0 13 -10q0 -18 -5.5 -59t-12.5 -41h-28z" />
    <glyph glyph-name="uni030F" unicode="&#x30f;" 
d="M-230 786l193 -204l-25 -27l-231 160zM-435 786l193 -204l-25 -27l-231 160z" />
    <glyph glyph-name="uni0311" unicode="&#x311;" 
d="M-167 663q148 0 148 -59q0 -21 -10 -33t-25 -12q-21 0 -29 15t-8 47q-29 17 -76 17q-21 0 -40 -4t-27 -8l-9 -5q0 -32 -8 -47t-29 -15q-15 0 -24.5 12t-9.5 33q0 59 147 59z" />
    <glyph glyph-name="uni0312" unicode="&#x312;" 
d="M-214 600q0 50 18 98t32 68t25 31h24q-22 -49 -22 -91q0 -12 12 -52t12 -74q0 -4 -3 -7.5t-7 -3.5h-81q-4 0 -7 3.5t-3 7.5v20z" />
    <glyph glyph-name="uni0313" unicode="&#x313;" 
d="M-75 766q0 -50 -18 -98t-32 -68t-25 -31h-24q22 49 22 91q0 12 -12 52t-12 74q0 4 3 7.5t7 3.5h81q4 0 7 -3.5t3 -7.5v-20z" />
    <glyph glyph-name="uni0314" unicode="&#x314;" 
d="M-251 766v20q0 4 3 7.5t7 3.5h81q4 0 7 -3.5t3 -7.5q0 -34 -12 -74t-12 -52q0 -42 22 -91h-24q-11 11 -25 31t-32 68t-18 98z" />
    <glyph glyph-name="uni0326" unicode="&#x326;" 
d="M-188 -69q0 -50 -17.5 -98t-31.5 -68t-25 -31h-25q23 51 23 91q0 12 -12.5 52t-12.5 74q0 10 10 10h81q10 0 10 -10v-20z" />
    <glyph glyph-name="uni0327" unicode="&#x327;" 
d="M-187 -51q37 -2 60.5 -20.5t23.5 -45.5q0 -71 -180 -71v20q39 0 67.5 13t28.5 32.5t-15 34t-36 14.5l29 92h44z" />
    <glyph glyph-name="uni0328" unicode="&#x328;" 
d="M-169 -199q45 0 75 51l20 -8q-5 -22 -17 -42q-52 -91 -119 -91q-33 0 -60.5 25t-27.5 70q0 40 20 71l79 123h23l-45 -75q-18 -32 -18 -56q0 -29 21.5 -48.5t48.5 -19.5z" />
    <glyph glyph-name="uni0335" unicode="&#x335;" 
d="M-311 379h294v-41h-294v41z" />
    <glyph glyph-name="uni0337" unicode="&#x337;" 
d="M-297 291l242 169l23 -34l-241 -169z" />
    <glyph glyph-name="uni0338" unicode="&#x338;" 
d="M-445 0h-54l479 717h53z" />
    <glyph glyph-name="uni0400" unicode="&#x400;" horiz-adv-x="720" 
d="M239 984l193 -204l-25 -27l-231 160zM574 128q-16 -30 -24 -44t-27.5 -36t-41 -32t-58 -18t-84.5 -8q-135 0 -204 100.5t-69 268.5q0 167 69 268t204 101q48 0 84.5 -8t58.5 -18.5t41 -31.5t28 -36.5t24 -44.5q22 -44 79 -44v-24h-263v24q50 0 65.5 11t15.5 33
q0 42 -33.5 78t-97.5 36q-74 0 -107.5 -72t-38.5 -209q59 48 137 48q105 0 151 -19.5t72 -73.5q7 -16 10.5 -21.5t13.5 -19.5t25 -20t35 -6v-23h-263v23q38 0 57.5 7t23.5 15.5t4 24.5q0 28 -29 57t-98 29q-78 0 -140 -60v-25q0 -170 32.5 -257t114.5 -87q64 0 97.5 36
t33.5 78q0 23 -15.5 34t-65.5 11v24h263v-24q-58 0 -80 -45z" />
    <glyph glyph-name="afii10023" unicode="&#x401;" horiz-adv-x="720" 
d="M387 778q-10 0 -10 10v111q0 10 10 10h61q10 0 10 -10v-111q0 -10 -10 -10h-61zM238 778q-4 0 -7.5 3t-3.5 7v111q0 4 3.5 7t7.5 3h60q10 0 10 -10v-111q0 -10 -10 -10h-60zM574 128q-16 -30 -24 -44t-27.5 -36t-41 -32t-58 -18t-84.5 -8q-135 0 -204 100.5t-69 268.5
q0 167 69 268t204 101q48 0 84.5 -8t58.5 -18.5t41 -31.5t28 -36.5t24 -44.5q22 -44 79 -44v-24h-263v24q50 0 65.5 11t15.5 33q0 42 -33.5 78t-97.5 36q-74 0 -107.5 -72t-38.5 -209q59 48 137 48q105 0 151 -19.5t72 -73.5q7 -16 10.5 -21.5t13.5 -19.5t25 -20t35 -6v-23
h-263v23q38 0 57.5 7t23.5 15.5t4 24.5q0 28 -29 57t-98 29q-78 0 -140 -60v-25q0 -170 32.5 -257t114.5 -87q64 0 97.5 36t33.5 78q0 23 -15.5 34t-65.5 11v24h263v-24q-58 0 -80 -45z" />
    <glyph glyph-name="afii10051" unicode="&#x402;" horiz-adv-x="817" 
d="M403 -166v24q89 42 132 103t43 166q0 39 -3 66.5t-13.5 58.5t-30 50t-55.5 31.5t-86 12.5v-257q0 -44 11.5 -54.5t58.5 -10.5h1v-24h-263v24q48 0 59 10t11 55v538q0 45 -11 55t-59 10q-29 0 -54 -54t-25 -103h-25q0 38 -13 77.5t-27 59.5l-13 20v25h576v-25
q-6 -8 -15 -22t-23.5 -55.5t-14.5 -79.5h-24q0 49 -25 103t-54 54q-49 0 -60 -10.5t-11 -54.5v-256q81 0 140 -12t91 -29.5t50.5 -45t23 -50t4.5 -52.5q0 -57 -26.5 -113.5t-65.5 -97t-81.5 -72.5t-75.5 -48t-47 -17z" />
    <glyph glyph-name="afii10052" unicode="&#x403;" horiz-adv-x="584" 
d="M456 984l64 -71l-231 -160l-25 27zM325 0h-264v24q49 0 60 10t11 54v539q0 44 -11 54.5t-60 10.5v25h463v-25q-6 -8 -15 -22t-23.5 -55.5t-14.5 -79.5h-25q0 54 -33.5 105.5t-87.5 51.5q-49 0 -60 -10.5t-11 -54.5v-539q0 -44 11 -54t60 -10v-24z" />
    <glyph glyph-name="afii10053" unicode="&#x404;" horiz-adv-x="715" 
d="M574 128q-16 -30 -24 -44t-27.5 -36t-41 -32t-58 -18t-84.5 -8q-135 0 -204 100.5t-69 268.5q0 167 69 268t204 101q48 0 84.5 -8t58.5 -18.5t41 -31.5t28 -36.5t24 -44.5q22 -44 79 -44v-24h-263v24q50 0 65.5 11t15.5 33q0 42 -33.5 78t-97.5 36q-81 0 -113.5 -84
t-33.5 -248h332v-25h-332q1 -164 33.5 -248t113.5 -84q64 0 97.5 36t33.5 78q0 23 -15.5 34t-65.5 11v24h263v-24q-58 0 -80 -45z" />
    <glyph glyph-name="afii10054" unicode="&#x405;" horiz-adv-x="646" 
d="M217 33q-12 0 -42.5 -29t-45.5 -29q-25 0 -52.5 24.5t-27.5 53.5q0 12 30 41t54 29t51.5 -16t50 -34.5t59.5 -34.5t79 -16q39 0 64.5 35.5t25.5 108.5q0 173 -160 173q-64 0 -108 13.5t-66 39.5t-30.5 55t-8.5 68q0 101 58.5 156.5t169.5 55.5q62 0 108.5 -19t72.5 -50.5
t38.5 -68.5t12.5 -77q0 -14 -61 -14t-61 14q0 99 -26.5 144.5t-83.5 45.5q-46 0 -76.5 -48t-30.5 -118q0 -34 4 -59.5t15.5 -52.5t38 -42t65.5 -15q251 0 251 -177q0 -100 -56.5 -150t-163.5 -50q-47 0 -81 21.5t-67 21.5z" />
    <glyph glyph-name="afii10055" unicode="&#x406;" horiz-adv-x="386" 
d="M254 88q0 -44 11 -54t60 -10v-24h-264v24q49 0 60 10t11 54v540q0 44 -11 54.5t-60 10.5v24h264v-24q-49 0 -60 -10.5t-11 -54.5v-540z" />
    <glyph glyph-name="afii10056" unicode="&#x407;" horiz-adv-x="386" 
d="M235 778q-10 0 -10 10v111q0 10 10 10h61q10 0 10 -10v-111q0 -10 -10 -10h-61zM86 778q-4 0 -7.5 3t-3.5 7v111q0 4 3.5 7t7.5 3h60q10 0 10 -10v-111q0 -10 -10 -10h-60zM254 88q0 -44 11 -54t60 -10v-24h-264v24q49 0 60 10t11 54v540q0 44 -11 54.5t-60 10.5v24h264
v-24q-49 0 -60 -10.5t-11 -54.5v-540z" />
    <glyph glyph-name="afii10057" unicode="&#x408;" horiz-adv-x="696" 
d="M443 628q0 45 -11 55t-59 10v24h263v-24q-49 0 -60 -10.5t-11 -54.5v-290q0 -100 -8.5 -161.5t-33 -106t-68.5 -62.5t-114 -18q-106 0 -162 50t-77 155q-1 6 -3 16t-2.5 13.5t-2 10t-3 8.5t-4 6t-6 5t-7.5 3t-10.5 2t-14 0.5t-17.5 0.5v24h247v-24q-34 0 -44.5 -11
t-10.5 -54q0 -181 115 -181q65 0 84.5 59.5t19.5 216.5v338z" />
    <glyph glyph-name="afii10058" unicode="&#x409;" horiz-adv-x="1007" 
d="M768 353q-112 14 -176 71v-336q0 -44 11 -54t60 -10h34q49 0 60 10t11 54v265zM592 475q47 -56 117 -77t181 -21v-289q0 -44 11 -54t60 -10v-24h-562v24q49 0 60 10t11 54v474q-115 -58 -167.5 -167t-52.5 -307q0 -44 11 -54t60 -10v-24h-264v24q49 0 60 10t11 54
q0 68 7 120t28 110t58 104.5t99.5 94t149.5 88.5v23q0 44 -11 54.5t-60 10.5v24h264v-24q-49 0 -60 -10.5t-11 -54.5v-153z" />
    <glyph glyph-name="afii10059" unicode="&#x40a;" horiz-adv-x="994" 
d="M649 24h35q49 0 60 10t11 54v265q-112 14 -176 71v-336q0 -44 10.5 -54t59.5 -10zM579 628v-153q47 -56 117 -77t181 -21v-289q0 -44 10.5 -54t59.5 -10v-24h-561v24q49 0 60 10t11 54v130l-203 243v-373q0 -44 11 -54t60 -10v-24h-264v24q49 0 60 10t11 54v540
q0 44 -11 54.5t-60 10.5v24h264v-24q-49 0 -60 -10.5t-11 -54.5v-118l203 -241v359q0 44 -11 54.5t-60 10.5v24h263v-24q-48 0 -59 -10t-11 -55z" />
    <glyph glyph-name="afii10060" unicode="&#x40b;" horiz-adv-x="817" 
d="M268 627q0 45 -11 55t-59 10q-29 0 -54 -54t-25 -103h-25q0 38 -13 77.5t-27 59.5l-13 20v25h576v-25q-6 -8 -15 -22t-23.5 -55.5t-14.5 -79.5h-24q0 49 -25 103t-54 54q-49 0 -60 -10.5t-11 -54.5v-271q77 0 121.5 -2t83.5 -13t56 -26t30 -48.5t15.5 -72t2.5 -105.5
q0 -44 11 -54.5t60 -10.5v-24h-263v24q49 0 60 10.5t11 54.5q0 60 -1.5 94.5t-9 65.5t-18 44.5t-34 24t-51 12.5t-74.5 2v-243q0 -44 11.5 -54.5t58.5 -10.5h1v-24h-263v24q48 0 59 10t11 55v538z" />
    <glyph glyph-name="afii10061" unicode="&#x40c;" horiz-adv-x="709" 
d="M456 984l64 -71l-231 -160l-25 27zM132 628q0 44 -11 54.5t-60 10.5v24h264v-24q-49 0 -60 -10.5t-11 -54.5v-257h8q91 0 143 80t52 177q0 44 -11 54.5t-60 10.5v24h263v-24q-10 0 -17.5 -0.5t-14 -0.5t-10.5 -2t-7.5 -3t-6 -5t-4 -6t-3 -8.5t-2 -10t-2.5 -13.5t-3 -16
q-9 -48 -22.5 -86t-37 -76.5t-62.5 -66t-91 -41.5q52 -14 91 -41.5t62.5 -65.5t37 -76t22.5 -86q1 -6 3 -16t2.5 -13.5t2 -10t3 -8.5t4 -6t6 -5t7.5 -3t10.5 -2t14 -0.5t17.5 -0.5v-24h-263v24q49 0 60 10.5t11 54.5q0 97 -52 177t-143 80h-8v-258q0 -44 11 -54t60 -10v-24
h-264v24q49 0 60 10t11 54v540z" />
    <glyph glyph-name="uni040D" unicode="&#x40d;" horiz-adv-x="710" 
d="M239 984l193 -204l-25 -27l-231 160zM579 88q0 -44 10.5 -54t59.5 -10v-24h-263v24q49 0 60 10t11 54v368l-203 -243v-125q0 -44 11 -54t60 -10v-24h-264v24q49 0 60 10t11 54v540q0 44 -11 54.5t-60 10.5v24h264v-24q-49 0 -60 -10.5t-11 -54.5v-364l203 241v123
q0 44 -11 54.5t-60 10.5v24h263v-24q-48 0 -59 -10t-11 -55v-540z" />
    <glyph glyph-name="afii10062" unicode="&#x40e;" horiz-adv-x="620" 
d="M327 780q-147 0 -147 58q0 21 10 33.5t25 12.5q21 0 29 -15t8 -47q28 -17 75 -17q21 0 40 4q20 4 28 8l8 5q0 32 8 47t29 15q15 0 25 -12.5t10 -33.5q0 -58 -148 -58zM279 39q-8 -31 -34.5 -41t-109.5 -10q-14 0 -14 12q0 20 6 65t14 45h85q32 0 42 4.5t14 22.5l16 63
l-203 428q-20 41 -38.5 53t-66.5 12v24h263v-24q-52 0 -52 -19q0 -11 16 -46l124 -261l84 327q2 9 7.5 13t32.5 7t81 3q14 0 14 -12q0 -20 -6 -65t-14 -45h-65q-30 0 -40.5 -6t-14.5 -22z" />
    <glyph glyph-name="afii10145" unicode="&#x40f;" horiz-adv-x="719" 
d="M392 24q49 0 60 10.5t11 54.5v540q0 44 -11 54t-60 10v24h263v-24q-49 0 -59.5 -10t-10.5 -54v-540q0 -45 11 -55t59 -10v-24h-285l76 -77l-86 -87l-87 87l78 77h-286v24q48 0 59 10t11 55v540q0 44 -10.5 54t-59.5 10v24h263v-24q-49 0 -60 -10t-11 -54v-540
q0 -44 11 -54.5t60 -10.5h64z" />
    <glyph glyph-name="afii10017" unicode="&#x410;" horiz-adv-x="661" 
d="M529 88q0 -44 11 -54t60 -10v-24h-263v24q49 0 60 10t11 54v289q-79 -115 -181 -115q39 -26 39 -73q0 -56 -52 -79v-8q0 -44 19 -61t64 -17v-24h-236v24q45 0 63.5 17t18.5 61v7q-24 10 -39 31.5t-15 48.5q0 29 18 52.5t45 31.5q-65 23 -65 97q0 51 35.5 100.5t92.5 88
t101.5 62t89.5 42.5q-3 20 -16.5 25t-52.5 5v24h263v-24q-49 0 -60 -10.5t-11 -54.5v-540zM408 424v204v4q-31 -12 -60 -28.5t-64.5 -43t-57 -63.5t-21.5 -79q0 -94 80 -94q52 0 123 100z" />
    <glyph glyph-name="afii10018" unicode="&#x411;" horiz-adv-x="675" 
d="M524 717v-25q-6 -8 -15 -22t-23.5 -55.5t-14.5 -79.5h-25q0 54 -33.5 105.5t-87.5 51.5q-49 0 -60 -10.5t-11 -54.5v-152q47 -56 117 -77t181 -21v-289q0 -44 11 -54t60 -10v-24h-562v24q49 0 60 10t11 54v539q0 44 -11 54.5t-60 10.5v25h463zM430 353q-112 14 -176 71
v-336q0 -44 11 -54t60 -10h34q49 0 60 10t11 54v265z" />
    <glyph glyph-name="afii10019" unicode="&#x412;" horiz-adv-x="683" 
d="M132 88v541q0 44 -11 54t-60 10v24h562v-24q-49 0 -60 -10t-11 -54v-167q-112 0 -180 -19.5t-118 -74.5v-9q50 -55 118 -74.5t180 -19.5v-177q0 -44 11 -54t60 -10v-24h-562v24q49 0 60 10t11 54zM430 241q-109 13 -176 69v-222q0 -44 11 -54t60 -10h34q49 0 60 10t11 54
v153zM254 417q67 56 176 69v143q0 44 -11 54t-60 10h-34q-49 0 -60 -10t-11 -54v-212z" />
    <glyph glyph-name="afii10020" unicode="&#x413;" horiz-adv-x="584" 
d="M325 0h-264v24q49 0 60 10t11 54v539q0 44 -11 54.5t-60 10.5v25h463v-25q-6 -8 -15 -22t-23.5 -55.5t-14.5 -79.5h-25q0 54 -33.5 105.5t-87.5 51.5q-49 0 -60 -10.5t-11 -54.5v-539q0 -44 11 -54t60 -10v-24z" />
    <glyph glyph-name="afii10021" unicode="&#x414;" horiz-adv-x="711" 
d="M219 693v24h263v-24q-65 0 -65 -21q0 -12 2 -18l153 -629h109v-25q-6 -8 -15 -22.5t-23.5 -56t-14.5 -79.5h-25q0 39 -20.5 84.5t-54.5 73.5h-354q-34 -28 -54.5 -73.5t-20.5 -84.5h-24q0 38 -13 78q-14 40 -27 60l-13 20v25h113l151 616q3 11 3 26q0 26 -70 26zM164 25
h282l-142 586z" />
    <glyph glyph-name="afii10022" unicode="&#x415;" horiz-adv-x="720" 
d="M574 128q-16 -30 -24 -44t-27.5 -36t-41 -32t-58 -18t-84.5 -8q-135 0 -204 100.5t-69 268.5q0 167 69 268t204 101q48 0 84.5 -8t58.5 -18.5t41 -31.5t28 -36.5t24 -44.5q22 -44 79 -44v-24h-263v24q50 0 65.5 11t15.5 33q0 42 -33.5 78t-97.5 36q-74 0 -107.5 -72
t-38.5 -209q59 48 137 48q105 0 151 -19.5t72 -73.5q7 -16 10.5 -21.5t13.5 -19.5t25 -20t35 -6v-23h-263v23q38 0 57.5 7t23.5 15.5t4 24.5q0 28 -29 57t-98 29q-78 0 -140 -60v-25q0 -170 32.5 -257t114.5 -87q64 0 97.5 36t33.5 78q0 23 -15.5 34t-65.5 11v24h263v-24
q-58 0 -80 -45z" />
    <glyph glyph-name="afii10024" unicode="&#x416;" horiz-adv-x="1022" 
d="M567 346v-258q0 -44 11 -54t60 -10v-24h-263v24q49 0 59.5 10t10.5 54v258q-46 0 -83 -19t-58.5 -47t-36 -64.5t-19.5 -67.5t-5 -59q0 -45 11 -55t59 -10v-24h-263v24q10 0 17.5 0.5t14 0.5t10.5 2.5t7.5 2.5t6 5t4 6t3.5 8.5t2.5 10t2.5 13.5t3 16q9 48 22.5 86t37 76
t62.5 65.5t91 41.5q-52 14 -91 41.5t-62.5 66t-37 76.5t-22.5 86q-9 46 -14 53q-10 12 -57 12v24h263v-24q-48 0 -59 -10t-11 -55q0 -28 5 -59t19.5 -67.5t36 -64.5t58.5 -47t83 -19v257q0 45 -11 55t-59 10v24h263v-24q-49 0 -60 -10.5t-11 -54.5v-257q57 0 99.5 27.5
t63.5 70.5t30.5 83t9.5 76q0 44 -11 54.5t-60 10.5v24h264v-24q-10 0 -17.5 -0.5t-14 -0.5t-10.5 -2.5t-7.5 -2.5t-6 -5t-4 -6t-3.5 -8.5t-2.5 -10t-2.5 -13.5t-3 -16q-9 -48 -22.5 -86t-37 -76.5t-62.5 -66t-91 -41.5q52 -14 91 -41.5t62.5 -65.5t37 -76t22.5 -86
q9 -46 14 -53q10 -12 57 -12v-24h-264v24q49 0 60 10.5t11 54.5q0 36 -9.5 76t-30.5 83t-63.5 70.5t-99.5 27.5z" />
    <glyph glyph-name="afii10025" unicode="&#x417;" horiz-adv-x="655" 
d="M323 378q-50 0 -83 -13t-40 -13q-8 0 -27 17t-19 24q0 8 18.5 22.5t30.5 14.5q3 0 13.5 -6t33.5 -12t58 -6q61 0 92 45t31 108q0 67 -29.5 105t-77.5 38q-57 0 -83.5 -45.5t-26.5 -144.5q0 -14 -61 -14t-61 14q0 40 12.5 77t38.5 68.5t72.5 50.5t108.5 19
q115 0 171.5 -45t56.5 -143q0 -111 -109 -147q78 -24 114 -79.5t36 -122.5q0 -100 -56.5 -150t-163.5 -50q-47 0 -81 21.5t-67 21.5q-12 0 -42.5 -29t-45.5 -29q-25 0 -52.5 24.5t-27.5 53.5q0 12 30 41t54 29t51.5 -16t50 -34.5t59.5 -34.5t79 -16q37 0 63.5 47.5
t26.5 123.5q0 78 -35 131.5t-113 53.5z" />
    <glyph glyph-name="afii10026" unicode="&#x418;" horiz-adv-x="710" 
d="M579 88q0 -44 10.5 -54t59.5 -10v-24h-263v24q49 0 60 10t11 54v368l-203 -243v-125q0 -44 11 -54t60 -10v-24h-264v24q49 0 60 10t11 54v540q0 44 -11 54.5t-60 10.5v24h264v-24q-49 0 -60 -10.5t-11 -54.5v-364l203 241v123q0 44 -11 54.5t-60 10.5v24h263v-24
q-48 0 -59 -10t-11 -55v-540z" />
    <glyph glyph-name="afii10027" unicode="&#x419;" horiz-adv-x="710" 
d="M355 780q-147 0 -147 58q0 21 10 33.5t25 12.5q21 0 29 -15t8 -47q28 -17 75 -17q21 0 40 4q20 4 28 8l8 5q0 32 8 47t29 15q15 0 25 -12.5t10 -33.5q0 -58 -148 -58zM579 88q0 -44 10.5 -54t59.5 -10v-24h-263v24q49 0 60 10t11 54v368l-203 -243v-125q0 -44 11 -54
t60 -10v-24h-264v24q49 0 60 10t11 54v540q0 44 -11 54.5t-60 10.5v24h264v-24q-49 0 -60 -10.5t-11 -54.5v-364l203 241v123q0 44 -11 54.5t-60 10.5v24h263v-24q-48 0 -59 -10t-11 -55v-540z" />
    <glyph glyph-name="afii10028" unicode="&#x41a;" horiz-adv-x="709" 
d="M132 628q0 44 -11 54.5t-60 10.5v24h264v-24q-49 0 -60 -10.5t-11 -54.5v-257h8q91 0 143 80t52 177q0 44 -11 54.5t-60 10.5v24h263v-24q-10 0 -17.5 -0.5t-14 -0.5t-10.5 -2t-7.5 -3t-6 -5t-4 -6t-3 -8.5t-2 -10t-2.5 -13.5t-3 -16q-9 -48 -22.5 -86t-37 -76.5
t-62.5 -66t-91 -41.5q52 -14 91 -41.5t62.5 -65.5t37 -76t22.5 -86q1 -6 3 -16t2.5 -13.5t2 -10t3 -8.5t4 -6t6 -5t7.5 -3t10.5 -2t14 -0.5t17.5 -0.5v-24h-263v24q49 0 60 10.5t11 54.5q0 97 -52 177t-143 80h-8v-258q0 -44 11 -54t60 -10v-24h-264v24q49 0 60 10t11 54
v540z" />
    <glyph glyph-name="afii10029" unicode="&#x41b;" horiz-adv-x="709" 
d="M579 88q6 -45 16 -54.5t58 -9.5v-24h-263v24q42 0 55.5 6t13.5 30q0 17 -2 28l-62 467q-21 -22 -41.5 -54.5t-45 -88t-39.5 -140t-15 -184.5q0 -44 11 -54t60 -10v-24h-264v24q49 0 60 10t11 54q0 87 6 135t34.5 107t76.5 115t141 150l-4 33q-6 45 -16.5 55t-58.5 10v24
h263v-24q-43 0 -55 -7t-12 -35q0 -14 1 -23z" />
    <glyph glyph-name="afii10030" unicode="&#x41c;" horiz-adv-x="999" 
d="M552 88q6 -45 16.5 -54.5t58.5 -9.5v-24h-263v24q41 0 54.5 6t13.5 30q0 17 -2 28l-61 467q-21 -22 -41.5 -54.5t-45.5 -88t-40 -140t-15 -184.5q0 -44 11 -54t60 -10v-24h-263v24q49 0 59.5 10t10.5 54q0 114 16 176.5t68 134.5t175 196l-5 33q-6 46 -16.5 55.5
t-57.5 9.5v24h263v-24q-43 0 -55.5 -7t-12.5 -35q0 -14 1 -23l34 -259q56 116 179 214l-6 45q-6 45 -16.5 55t-58.5 10v24h264v-24q-43 0 -55.5 -7t-12.5 -35q0 -14 1 -23l71 -540q6 -45 16 -54.5t58 -9.5v-24h-263v24q42 0 55.5 6t13.5 30q0 17 -2 28l-60 454
q-125 -110 -169 -291z" />
    <glyph glyph-name="afii10031" unicode="&#x41d;" horiz-adv-x="710" 
d="M579 88q0 -44 10.5 -54t59.5 -10v-24h-263v24q49 0 60 10t11 54v130l-203 243v-373q0 -44 11 -54t60 -10v-24h-264v24q49 0 60 10t11 54v540q0 44 -11 54.5t-60 10.5v24h264v-24q-49 0 -60 -10.5t-11 -54.5v-118l203 -241v359q0 44 -11 54.5t-60 10.5v24h263v-24
q-48 0 -59 -10t-11 -55v-540z" />
    <glyph glyph-name="afii10032" unicode="&#x41e;" horiz-adv-x="633" 
d="M317 703q-43 0 -71 -23.5t-42 -72t-19.5 -106.5t-5.5 -143q0 -68 3 -117t12 -94t24 -73t40 -44t59 -16q42 0 70 23.5t42.5 72t20 106.5t5.5 143t-5.5 143.5t-20 106.5t-42.5 71t-70 23zM317 728q134 0 200 -100.5t66 -269.5t-66 -268.5t-200 -99.5t-200 100t-66 269
t66 269t200 100z" />
    <glyph glyph-name="afii10033" unicode="&#x41f;" horiz-adv-x="710" 
d="M325 693q-49 0 -60 -10.5t-11 -54.5v-540q0 -44 11 -54t60 -10v-24h-264v24q49 0 60 10t11 54v540q0 44 -11 54.5t-60 10.5v24h588v-24q-48 0 -59 -10t-11 -55v-540q0 -44 10.5 -54t59.5 -10v-24h-263v24q49 0 60 10t11 54v540q0 44 -11 54.5t-60 10.5h-61z" />
    <glyph glyph-name="afii10034" unicode="&#x420;" horiz-adv-x="591" 
d="M254 336v-248q0 -44 11 -54t60 -10v-24h-264v24q49 0 60 10t11 54v364q0 275 212 275q113 0 160 -47.5t47 -147.5q0 -102 -47.5 -155.5t-159.5 -53.5q-51 0 -90 13zM254 525q0 -94 20.5 -136t69.5 -42q85 0 85 185q0 91 -20.5 130.5t-64.5 39.5q-43 0 -66.5 -38
t-23.5 -139z" />
    <glyph glyph-name="afii10035" unicode="&#x421;" horiz-adv-x="701" 
d="M182 358q0 -86 5.5 -143.5t19.5 -106t42 -71.5t70 -23q70 0 101 45.5t31 135.5q0 44 -11 54.5t-60 10.5v24h263v-24q-10 0 -17.5 -0.5t-14 -0.5t-10.5 -2t-7.5 -3t-6 -5t-4 -6t-3 -8.5t-2.5 -10t-3 -13.5t-3 -16q-23 -108 -79 -156.5t-176 -48.5q-134 0 -198.5 99.5
t-64.5 269.5q0 169 64.5 269t198.5 100q121 0 177.5 -49t77.5 -156q9 -46 14 -53q10 -12 57 -12v-24h-263v24q49 0 60 10.5t11 54.5q0 90 -31 135t-101 45q-42 0 -70 -23.5t-42 -72t-19.5 -106.5t-5.5 -143z" />
    <glyph glyph-name="afii10036" unicode="&#x422;" horiz-adv-x="658" 
d="M461 0h-263v24q49 0 59.5 10t10.5 54v539q0 45 -11 55t-59 10q-29 0 -54 -54t-25 -103h-25q0 38 -13 77.5t-27 59.5l-13 20v25h576v-25q-6 -8 -15 -22t-23.5 -55.5t-14.5 -79.5h-24q0 49 -25 103t-54 54q-49 0 -60 -10.5t-11 -54.5v-539q0 -44 11 -54t60 -10v-24z" />
    <glyph glyph-name="afii10037" unicode="&#x423;" horiz-adv-x="620" 
d="M279 39q-8 -31 -34.5 -41t-109.5 -10q-14 0 -14 12q0 20 6 65t14 45h85q32 0 42 4.5t14 22.5l16 63l-203 428q-20 41 -38.5 53t-66.5 12v24h263v-24q-52 0 -52 -19q0 -11 16 -46l124 -261l84 327q2 9 7.5 13t32.5 7t81 3q14 0 14 -12q0 -20 -6 -65t-14 -45h-65
q-30 0 -40.5 -6t-14.5 -22z" />
    <glyph glyph-name="afii10038" unicode="&#x424;" horiz-adv-x="744" 
d="M431 88q0 -44 11 -54t60 -10v-24h-263v24q49 0 59.5 10t10.5 54v46q-123 6 -189.5 65.5t-66.5 159.5t66.5 159.5t189.5 65.5v44q0 45 -11 55t-59 10v24h263v-24q-49 0 -60 -10.5t-11 -54.5v-44q123 -6 189.5 -65.5t66.5 -160.5t-66 -159.5t-190 -64.5v-46zM431 557v-395
q62 9 95 52t33 145t-33 145.5t-95 52.5zM309 162v394q-62 -9 -95 -52.5t-33 -145.5t33 -144.5t95 -51.5z" />
    <glyph glyph-name="afii10039" unicode="&#x425;" horiz-adv-x="673" 
d="M529 88q21 -44 38 -54t67 -10v-24h-263v24q30 0 42 3.5t12 13.5q0 8 -17 47l-94 196l-97 -191q-15 -28 -15 -44q0 -15 16 -20t55 -5v-24h-235v24q50 0 73 5.5t35.5 18t29.5 45.5l119 233l-143 302q-20 41 -39 53t-67 12v24h263v-24q-52 0 -52 -19q0 -11 16 -46l85 -178
l125 244q5 10 11 14t28 6.5t68 2.5q14 0 14 -12q0 -20 -6 -65t-14 -45h-42q-68 0 -80 -23l-84 -164z" />
    <glyph glyph-name="afii10040" unicode="&#x426;" horiz-adv-x="779" 
d="M740 25v-25q-6 -8 -15 -22.5t-23.5 -56t-14.5 -79.5h-24q0 39 -20.5 84.5t-54.5 73.5h-523v24q48 0 59 10t11 55v540q0 44 -10.5 54t-59.5 10v24h263v-24q-49 0 -60 -10t-11 -54v-540q0 -44 11 -54.5t60 -10.5h61q49 0 60 10.5t11 54.5v540q0 44 -11 54t-60 10v24h263
v-24q-49 0 -59.5 -10t-10.5 -54v-540q0 -45 11 -55t59 -10z" />
    <glyph glyph-name="afii10041" unicode="&#x427;" horiz-adv-x="641" 
d="M509 88q0 -44 11 -54t60 -10v-24h-264v24q49 0 60 10t11 54v272q-77 0 -121.5 2.5t-83.5 13.5t-56 25.5t-30 48.5t-15.5 72.5t-2.5 105.5q0 44 -11 54.5t-60 10.5v24h263v-24q-48 0 -59 -10t-11 -55q0 -61 1.5 -95t9 -65t18 -44.5t33.5 -24t50.5 -12.5t74.5 -2v243
q0 44 -11 54.5t-60 10.5v24h264v-24q-49 0 -60 -10.5t-11 -54.5v-540z" />
    <glyph glyph-name="afii10042" unicode="&#x428;" horiz-adv-x="1035" 
d="M711 24q48 0 59 10t11 55v540q0 44 -10.5 54t-59.5 10v24h263v-24q-49 0 -60 -10t-11 -54v-540q0 -44 11 -54.5t60 -10.5v-24h-913v24q49 0 60 10.5t11 54.5v540q0 44 -11 54t-60 10v24h264v-24q-49 0 -60 -10t-11 -54v-540q0 -44 11 -54.5t60 -10.5h61q49 0 60 10.5
t11 54.5v540q0 44 -11 54t-60 10v24h263v-24q-49 0 -59.5 -10t-10.5 -54v-540q0 -45 11 -55t59 -10h62z" />
    <glyph glyph-name="afii10043" unicode="&#x429;" horiz-adv-x="1041" 
d="M714 24q48 0 59 10t11 55v540q0 44 -10.5 54t-59.5 10v24h263v-24q-49 0 -60 -10t-11 -54v-540q0 -44 11 -54.5t60 -10.5v-24h-447l77 -77l-86 -87l-87 87l78 77h-447v24q48 0 59 10t11 55v540q0 44 -10.5 54t-59.5 10v24h263v-24q-49 0 -60 -10t-11 -54v-540
q0 -44 11 -54.5t60 -10.5h61q49 0 60 10.5t11 54.5v540q0 44 -11 54t-60 10v24h263v-24q-49 0 -59.5 -10t-10.5 -54v-540q0 -45 11 -55t59 -10h62z" />
    <glyph glyph-name="afii10044" unicode="&#x42a;" horiz-adv-x="789" 
d="M444 717v-25q-48 0 -59 -10t-11 -55v-152q47 -56 117 -77t181 -21v-289q0 -44 10.5 -54t59.5 -10v-24h-561v24q49 0 60 10t11 54v539q0 44 -11 54.5t-60 10.5q-36 0 -68.5 -54t-32.5 -103h-25q0 38 -13.5 77.5t-26.5 59.5l-13 20v25h442zM444 24h35q49 0 60 10t11 54v265
q-112 14 -176 71v-336q0 -44 10.5 -54t59.5 -10z" />
    <glyph glyph-name="afii10045" unicode="&#x42b;" horiz-adv-x="1008" 
d="M877 88q0 -44 11 -54t60 -10v-24h-264v24q49 0 60 10t11 54v540q0 44 -11 54.5t-60 10.5v24h264v-24q-49 0 -60 -10.5t-11 -54.5v-540zM254 475q47 -56 117 -77t181 -21v-289q0 -44 11 -54t60 -10v-24h-562v24q49 0 60 10t11 54v540q0 44 -11 54.5t-60 10.5v24h264v-24
q-49 0 -60 -10.5t-11 -54.5v-153zM430 353q-112 14 -176 71v-336q0 -44 11 -54t60 -10h34q49 0 60 10t11 54v265z" />
    <glyph glyph-name="afii10046" unicode="&#x42c;" horiz-adv-x="669" 
d="M254 475q47 -56 117 -77t181 -21v-289q0 -44 11 -54t60 -10v-24h-562v24q49 0 60 10t11 54v540q0 44 -11 54.5t-60 10.5v24h264v-24q-49 0 -60 -10.5t-11 -54.5v-153zM430 353q-112 14 -176 71v-336q0 -44 11 -54t60 -10h34q49 0 60 10t11 54v265z" />
    <glyph glyph-name="afii10047" unicode="&#x42d;" horiz-adv-x="739" 
d="M153 590q16 30 24 44t27.5 36t41 32t58 18t84.5 8q135 0 204.5 -101t69.5 -269q0 -167 -69.5 -267.5t-204.5 -100.5q-48 0 -84.5 8t-58.5 18.5t-41 31.5t-28 36.5t-24 44.5q-22 44 -79 44v24h263v-24q-50 0 -65.5 -11t-15.5 -33q0 -42 33.5 -78.5t97.5 -36.5q81 0 114 85
t34 248h-333v25h333q-1 163 -34 247t-114 84q-64 0 -97.5 -35.5t-33.5 -77.5q0 -23 15.5 -34t65.5 -11v-24h-263v24q57 0 80 45z" />
    <glyph glyph-name="afii10048" unicode="&#x42e;" horiz-adv-x="960" 
d="M254 88q0 -44 11 -54t60 -10v-24h-264v24q49 0 60 10t11 54v540q0 44 -11 54.5t-60 10.5v24h264v-24q-49 0 -60 -10.5t-11 -54.5v-257h124q2 164 68 260.5t198 96.5q134 0 199.5 -100t65.5 -270q0 -169 -65.5 -268.5t-199.5 -99.5q-132 0 -198 96.5t-68 259.5h-124v-258z
M644 703q-43 0 -71 -23.5t-42 -72t-19.5 -106.5t-5.5 -143q0 -68 3 -117t12 -94t24 -73t40 -44t59 -16q42 0 70 23.5t42 72t19.5 106.5t5.5 143q0 86 -5.5 143.5t-19.5 106t-42 71.5t-70 23z" />
    <glyph glyph-name="afii10049" unicode="&#x42f;" horiz-adv-x="698" 
d="M374 0v24q49 0 59.5 10t10.5 54v258q-91 -1 -147.5 -82t-56.5 -175q0 -45 11 -55t59 -10v-24h-263v24q10 0 17.5 0.5t14 0.5t10.5 2.5t7.5 2.5t6 5t4 6t3.5 8.5t2.5 10t2.5 13.5t3 16q11 57 30.5 102t55 88t96 67t141.5 25q-50 53 -117.5 72t-177.5 19v167q0 44 -10.5 54
t-59.5 10v24h561v-24q-49 0 -60 -10t-11 -54v-541q0 -44 11 -54t60 -10v-24h-263zM444 417v212q0 44 -10.5 54t-59.5 10h-35q-49 0 -60 -10t-11 -54v-143q109 -13 176 -69z" />
    <glyph glyph-name="afii10065" unicode="&#x430;" horiz-adv-x="473" 
d="M341 495l87 -495h-104l-12 62q-60 -72 -156 -72q-57 0 -81.5 35t-24.5 79q0 129 203 299l-20 109h84q21 0 24 -17zM305 106l-48 270q-111 -93 -111 -197q0 -39 20 -75.5t61 -36.5q50 0 78 39z" />
    <glyph glyph-name="afii10066" unicode="&#x431;" horiz-adv-x="481" 
d="M430 0h-369v512h334v-25q-33 -43 -33 -129h-24q0 83 -19.5 106t-87.5 23h-67v-196q110 -3 164.5 -27t78 -84.5t23.5 -179.5zM164 25h164q-2 120 -37 175t-127 64v-239z" />
    <glyph glyph-name="afii10067" unicode="&#x432;" horiz-adv-x="506" 
d="M447 0h-368v512h342q0 -85 -43 -142.5t-117 -83.5q109 -13 147.5 -73t38.5 -213zM181 25h164q-2 120 -37 175t-127 64v-239zM181 487v-194q72 8 103 54t34 140h-137z" />
    <glyph glyph-name="afii10068" unicode="&#x433;" horiz-adv-x="436" 
d="M164 487v-487h-103v512h334v-25q-33 -43 -33 -129h-24q0 83 -19.5 106t-87.5 23h-67z" />
    <glyph glyph-name="afii10069" unicode="&#x434;" horiz-adv-x="665" 
d="M472 0h-278q-34 -28 -54.5 -73.5t-20.5 -84.5h-25q0 38 -13 78t-27 60l-13 20v25h115l131 487h104l131 -487h103v-25q-6 -8 -15 -22.5t-24 -56t-15 -79.5h-24q0 39 -20.5 84.5t-54.5 73.5zM180 25h236l-118 439z" />
    <glyph glyph-name="afii10070" unicode="&#x435;" horiz-adv-x="435" 
d="M346 487l-170 -79v-115l108 50l41 -59l-149 -70v-122q0 -32 22 -32q7 0 10 2l101 49l65 -50l-140 -65q-24 -11 -50 -11q-45 0 -77.5 30t-32.5 84v296q0 45 38 61l146 68z" />
    <glyph glyph-name="afii10072" unicode="&#x436;" horiz-adv-x="739" 
d="M319 512h103v-212q74 25 110.5 75t36.5 137h103v-25q0 -79 -53.5 -124t-157.5 -78q102 -20 157.5 -86t55.5 -199h-103q0 125 -43.5 188.5t-105.5 76.5v-265h-103v265q-62 -13 -105.5 -76.5t-43.5 -188.5h-102q0 133 55.5 199t157.5 86q-104 33 -157.5 78t-53.5 124v25
h102q0 -87 36.5 -137t110.5 -75v212z" />
    <glyph glyph-name="afii10073" unicode="&#x437;" horiz-adv-x="569" 
d="M287 248q-40 0 -66.5 -7.5t-32.5 -7.5t-21 12.5t-15 18.5t14.5 17t23.5 11q3 0 11 -3.5t26.5 -7t46.5 -3.5q49 0 73 35.5t24 84.5q0 51 -22.5 76.5t-61.5 25.5q-46 0 -66 -31t-20 -105q0 -12 -50 -12q-53 0 -53 12q0 65 47 112.5t142 47.5q186 0 186 -141
q0 -40 -23.5 -73.5t-66.5 -46.5q123 -36 123 -133q0 -140 -179 -140q-45 0 -82.5 20.5t-56.5 20.5q-9 0 -34 -25.5t-37 -25.5q-20 0 -42.5 18t-22.5 40q0 13 24 32.5t44 19.5q37 0 66 -11.5t45 -26t42.5 -26t59.5 -11.5q30 0 50 30.5t20 86.5q0 55 -26 85.5t-90 30.5z" />
    <glyph glyph-name="afii10074" unicode="&#x438;" horiz-adv-x="501" 
d="M338 512h102v-512h-102v338l-174 -208v-130h-103v512h103v-331l174 207v124z" />
    <glyph glyph-name="afii10075" unicode="&#x439;" horiz-adv-x="501" 
d="M250 575q-147 0 -147 58q0 21 10 33.5t25 12.5q21 0 29 -15t8 -47q28 -17 75 -17q21 0 40 4q20 4 28 8l8 5q0 32 8 47t29 15q15 0 25 -12.5t10 -33.5q0 -58 -148 -58zM338 512h102v-512h-102v338l-174 -208v-130h-103v512h103v-331l174 207v124z" />
    <glyph glyph-name="afii10076" unicode="&#x43a;" horiz-adv-x="498" 
d="M79 512h102v-212q74 25 111 75t37 137h102v-25q0 -79 -53.5 -124t-157.5 -78q102 -20 157.5 -86t55.5 -199h-102q0 125 -44 188.5t-106 76.5v-265h-102v512z" />
    <glyph glyph-name="afii10077" unicode="&#x43b;" horiz-adv-x="501" 
d="M364 495l87 -495h-105l-66 379q-123 -153 -123 -344q0 -24 1 -35h-109q4 121 44.5 200t178.5 221l-16 91h84q21 0 24 -17z" />
    <glyph glyph-name="afii10078" unicode="&#x43c;" horiz-adv-x="727" 
d="M589 495l87 -495h-105l-68 391q-11 -18 -37.5 -54t-45.5 -69t-29 -68l35 -200h-104l-66 373q-100 -144 -100 -333q0 -24 4 -40h-109q2 70 7 107t24 88t58 102.5t108 123.5l-17 91h84q21 0 24 -17l37 -211q6 7 25.5 28.5t28.5 32.5t23.5 29t24.5 33t17 30l-14 75h86
q19 0 22 -17z" />
    <glyph glyph-name="afii10079" unicode="&#x43d;" horiz-adv-x="501" 
d="M164 0h-103v512h103v-154l174 -121v275h102v-512h-102v197l-174 121v-318z" />
    <glyph glyph-name="afii10080" unicode="&#x43e;" horiz-adv-x="552" 
d="M315 49q43 32 57 63t14 84q0 43 -18.5 85.5t-41.5 70.5t-51 61t-38 50q-47 -31 -63 -62t-16 -84q0 -44 21 -87.5t46.5 -71t53 -59t36.5 -50.5zM282 522q87 -38 149.5 -121.5t62.5 -146.5q0 -38 -21.5 -86.5t-76 -102t-129.5 -79.5q-87 38 -149.5 121.5t-62.5 146.5
q0 38 21.5 86.5t76 102t129.5 79.5z" />
    <glyph glyph-name="afii10081" unicode="&#x43f;" horiz-adv-x="501" 
d="M164 0h-103v512h379v-512h-102v487h-174v-487z" />
    <glyph glyph-name="afii10082" unicode="&#x440;" horiz-adv-x="530" 
d="M209 -20q14 -70 14 -125q0 -29 -11.5 -55t-28.5 -43t-33 -30t-28 -19l-12 -6l-29 41q4 3 10 9.5t16 29.5t10 49q0 92 -34 208t-34 215q0 38 21.5 86.5t75.5 102t129 79.5q87 -38 149.5 -121.5t62.5 -146.5q0 -53 -35.5 -115t-102 -110t-140.5 -49zM198 24q182 8 182 172
q0 43 -19 85.5t-41.5 70.5t-51 61t-38.5 50q-47 -31 -62.5 -61.5t-15.5 -84.5q0 -30 2.5 -60t5 -51.5t8.5 -51.5t9 -43.5t11 -46t10 -40.5z" />
    <glyph glyph-name="afii10083" unicode="&#x441;" horiz-adv-x="467" 
d="M281 391q-49 58 -57 72q-47 -31 -63 -62t-16 -84q0 -44 21 -87.5t47 -71t53.5 -59t36.5 -50.5q51 38 63 78l56 -21q-63 -83 -167 -120q-87 38 -149.5 121.5t-62.5 146.5q0 38 21.5 86.5t75.5 102t129 79.5q58 -25 112 -79z" />
    <glyph glyph-name="afii10084" unicode="&#x442;" horiz-adv-x="503" 
d="M198 0v487q-40 0 -59 -3t-34.5 -16t-19.5 -38t-4 -72h-25q0 38 -8 70.5t-16 45.5l-8 13v25h450v-25q-33 -43 -33 -129h-24q0 47 -4 72t-19.5 38t-34.5 16t-59 3v-487h-102z" />
    <glyph glyph-name="afii10085" unicode="&#x443;" horiz-adv-x="568" 
d="M362 -45q0 -77 15 -120t15 -56q0 -11 -5.5 -18t-13.5 -7q-37 0 -37 205v41h-105l-183 487q-3 9 -3 15q0 11 16 11h56q18 0 25 -4.5t12 -19.5l171 -457h12q5 180 29 300t48 158q13 22 96 23q13 0 13 -12q0 -20 -6 -65t-14 -45h-31q-31 0 -43 -6.5t-21 -26.5
q-9 -19 -18.5 -57t-18.5 -131t-9 -215z" />
    <glyph glyph-name="afii10086" unicode="&#x444;" horiz-adv-x="715" 
d="M399 603v-153q236 -11 236 -226q0 -213 -236 -224v-154h-102v154q-236 11 -236 225t236 225v153h102zM399 423v-395q63 9 98 52.5t35 144.5t-35 145t-98 53zM297 28v394q-63 -9 -98 -53t-35 -145t35 -144t98 -52z" />
    <glyph glyph-name="afii10087" unicode="&#x445;" horiz-adv-x="510" 
d="M102 512h62l91 -157l77 134q5 9 10 12.5t28 7t68 3.5q15 0 15 -12q0 -19 -6.5 -64.5t-14.5 -45.5h-59q-65 0 -76 -22l-25 -44l188 -324h-118l-127 220l-123 -220h-41l146 253l-119 205q-8 13 -8 27q0 27 32 27z" />
    <glyph glyph-name="afii10088" unicode="&#x446;" horiz-adv-x="645" 
d="M357 512h103v-487h152v-25q-6 -8 -15 -22.5t-23.5 -56t-14.5 -79.5h-24q0 39 -20.5 84.5t-54.5 73.5h-379v512h102v-487h174v487z" />
    <glyph glyph-name="afii10089" unicode="&#x447;" horiz-adv-x="485" 
d="M306 512h103v-512h-103v207q-36 -12 -77 -12q-77 0 -128 42.5t-51 137.5v137h103v-170q0 -42 7 -69t20 -37.5t23.5 -13.5t25.5 -3t25.5 3t24 13.5t20.5 37.5t7 69v170z" />
    <glyph glyph-name="afii10090" unicode="&#x448;" horiz-adv-x="770" 
d="M591 512h102v-512h-614v512h102v-487h154v487h102v-487h154v487z" />
    <glyph glyph-name="afii10091" unicode="&#x449;" horiz-adv-x="770" 
d="M591 512h102v-512h-256v-205h-102v205h-256v512h102v-487h154v487h102v-487h154v487z" />
    <glyph glyph-name="afii10092" unicode="&#x44a;" horiz-adv-x="651" 
d="M206 487h-19q-68 0 -87 -23t-19 -106h-25q0 38 -8 70.5t-16 45.5l-8 13v25h284v-184l78 45q43 -35 110.5 -135t120.5 -238h-411v487zM308 25h174q-25 96 -63 176t-70 122l-41 -23v-275z" />
    <glyph glyph-name="afii10093" unicode="&#x44b;" horiz-adv-x="724" 
d="M545 512h103v-512h-103v512zM78 512h103v-184l78 45q43 -35 110.5 -135t120.5 -238h-412v512zM181 25h174q-25 96 -63 176t-70 122l-41 -23v-275z" />
    <glyph glyph-name="afii10094" unicode="&#x44c;" horiz-adv-x="509" 
d="M61 512h103v-184l78 45q43 -35 110.5 -135t120.5 -238h-412v512zM164 25h174q-25 96 -63 176t-70 122l-41 -23v-275z" />
    <glyph glyph-name="afii10095" unicode="&#x44d;" horiz-adv-x="488" 
d="M191 391l-100 52q54 54 112 79q75 -26 129 -79.5t75.5 -102t21.5 -86.5q0 -63 -62.5 -146.5t-149.5 -121.5q-104 37 -167 120l56 21q12 -40 63 -78q9 20 41 54t63.5 75t44.5 83h-199v25h205q3 15 3 31q0 53 -16 84t-63 62q-8 -14 -57 -72z" />
    <glyph glyph-name="afii10096" unicode="&#x44e;" horiz-adv-x="731" 
d="M79 512h102v-226h57q9 41 33 83t74 86t115 67q87 -38 149.5 -121.5t62.5 -146.5q0 -38 -21.5 -86.5t-76 -102t-129.5 -79.5q-87 38 -149.5 121.5t-62.5 146.5v7h-52v-261h-102v512zM494 49q43 32 56.5 62.5t13.5 84.5q0 43 -18.5 85.5t-41.5 70.5t-51 61t-38 50
q-47 -31 -63 -62t-16 -84q0 -44 21 -87.5t47 -71t53.5 -59t36.5 -50.5z" />
    <glyph glyph-name="afii10097" unicode="&#x44f;" horiz-adv-x="486" 
d="M323 487h-164q4 -183 164 -198v198zM323 0v262q-62 0 -113 -66.5t-51 -195.5h-103q0 212 166 270q-95 16 -130.5 70.5t-35.5 171.5h369v-512h-102z" />
    <glyph glyph-name="uni0450" unicode="&#x450;" horiz-adv-x="435" 
d="M90 817l193 -204l-25 -27l-231 160zM346 487l-170 -79v-115l108 50l41 -59l-149 -70v-122q0 -32 22 -32q7 0 10 2l101 49l65 -50l-140 -65q-24 -11 -50 -11q-45 0 -77.5 30t-32.5 84v296q0 45 38 61l146 68z" />
    <glyph glyph-name="afii10071" unicode="&#x451;" horiz-adv-x="435" 
d="M256 559q-10 0 -10 10v111q0 10 10 10h61q10 0 10 -10v-111q0 -10 -10 -10h-61zM107 559q-4 0 -7.5 3t-3.5 7v111q0 4 3.5 7t7.5 3h60q10 0 10 -10v-111q0 -10 -10 -10h-60zM346 487l-170 -79v-115l108 50l41 -59l-149 -70v-122q0 -32 22 -32q7 0 10 2l101 49l65 -50
l-140 -65q-24 -11 -50 -11q-45 0 -77.5 30t-32.5 84v296q0 45 38 61l146 68z" />
    <glyph glyph-name="afii10099" unicode="&#x452;" horiz-adv-x="547" 
d="M486 244q0 -84 -27 -156.5t-65 -117t-81.5 -77t-75 -45.5t-47.5 -14v24q109 41 151.5 121.5t42.5 251.5q0 99 -24 133.5t-73 34.5q-17 0 -29.5 -3t-30.5 -13.5t-28 -37.5t-10 -69v-276h-102v487h-26v25h26v205h102v-205h206v-25h-206v-75q36 12 98 12q36 0 69.5 -9.5
t63.5 -29t48 -56t18 -85.5z" />
    <glyph glyph-name="afii10100" unicode="&#x453;" horiz-adv-x="436" 
d="M396 815l64 -71l-231 -160l-25 27zM164 487v-487h-103v512h334v-25q-33 -43 -33 -129h-24q0 83 -19.5 106t-87.5 23h-67z" />
    <glyph glyph-name="afii10101" unicode="&#x454;" horiz-adv-x="467" 
d="M281 391q-49 58 -57 72q-47 -31 -63 -62t-16 -84q0 -16 3 -31h205v-25h-199q13 -42 44.5 -83t63.5 -75t41 -54q51 38 63 78l56 -21q-63 -83 -167 -120q-87 38 -149.5 121.5t-62.5 146.5q0 38 21.5 86.5t75.5 102t129 79.5q58 -25 112 -79z" />
    <glyph glyph-name="afii10102" unicode="&#x455;" horiz-adv-x="570" 
d="M191 39q-9 0 -36 -29t-39 -29q-20 0 -42.5 18t-22.5 40q0 10 27 38.5t46 28.5q28 0 100.5 -45t110.5 -45q30 0 51.5 36.5t21.5 93.5q0 133 -128 133q-83 0 -130 33.5t-47 82.5q0 71 46.5 99t142.5 28q95 0 140 -43t45 -102q0 -11 -49 -11q-53 0 -53 11q0 64 -19 92.5
t-64 28.5q-39 0 -62.5 -26.5t-23.5 -77.5q0 -35 25.5 -63t72.5 -28q108 0 157 -38.5t49 -99.5q0 -77 -49 -126t-132 -49q-31 0 -71 24.5t-67 24.5z" />
    <glyph glyph-name="afii10103" unicode="&#x456;" horiz-adv-x="225" 
d="M61 512h103v-512h-103v512z" />
    <glyph glyph-name="afii10104" unicode="&#x457;" horiz-adv-x="281" 
d="M190 559q-10 0 -10 10v111q0 10 10 10h61q10 0 10 -10v-111q0 -10 -10 -10h-61zM41 559q-4 0 -7.5 3t-3.5 7v111q0 4 3.5 7t7.5 3h60q10 0 10 -10v-111q0 -10 -10 -10h-60zM95 512h103v-512h-103v512z" />
    <glyph glyph-name="afii10105" unicode="&#x458;" horiz-adv-x="327" 
d="M159 582q-4 0 -7.5 3t-3.5 7v85q0 4 3.5 7t7.5 3h60q10 0 10 -10v-85q0 -10 -10 -10h-60zM137 512h103v-488q0 -122 -34.5 -175.5t-111.5 -53.5q-24 0 -52 20.5t-39 20.5q-9 0 -34.5 -25.5t-37.5 -25.5q-20 0 -42 18t-22 40q0 13 23.5 33t43.5 20q39 0 87.5 -37.5
t81.5 -37.5q20 0 27 42t7 128v521z" />
    <glyph glyph-name="afii10106" unicode="&#x459;" horiz-adv-x="813" 
d="M467 25h174q-25 96 -63 176t-70 122l-41 -23v-275zM365 512h102v-184l78 45q43 -35 110.5 -135t120.5 -238h-411v402q-106 -52 -157 -148.5t-51 -218.5q0 -24 1 -35h-109q2 64 15.5 117.5t46.5 112.5t97 114t157 102v66z" />
    <glyph glyph-name="afii10107" unicode="&#x45a;" horiz-adv-x="786" 
d="M164 0h-103v512h103v-154l174 -121v275h102v-184l78 45q43 -35 111 -135t121 -238h-412v197l-174 121v-318zM440 300v-275h174q-25 96 -63 176t-70 122z" />
    <glyph glyph-name="afii10108" unicode="&#x45b;" horiz-adv-x="559" 
d="M189 0h-102v487h-26v25h26v205h102v-205h206v-25h-206v-75q36 12 98 12q36 0 69.5 -9.5t63.5 -29t48 -56t18 -85.5v-244h-102v276q0 42 -10 69t-27.5 37.5t-30 13.5t-29.5 3t-29.5 -3t-30.5 -13.5t-28 -37.5t-10 -69v-276z" />
    <glyph glyph-name="afii10109" unicode="&#x45c;" horiz-adv-x="498" 
d="M422 815l64 -71l-231 -160l-25 27zM79 512h102v-212q74 25 111 75t37 137h102v-25q0 -79 -53.5 -124t-157.5 -78q102 -20 157.5 -86t55.5 -199h-102q0 125 -44 188.5t-106 76.5v-265h-102v512z" />
    <glyph glyph-name="uni045D" unicode="&#x45d;" horiz-adv-x="501" 
d="M82 815l193 -204l-25 -27l-231 160zM338 512h102v-512h-102v338l-174 -208v-130h-103v512h103v-331l174 207v124z" />
    <glyph glyph-name="afii10110" unicode="&#x45e;" horiz-adv-x="568" 
d="M294 559q-147 0 -147 58q0 21 10 33.5t25 12.5q21 0 29 -15t8 -47q28 -17 75 -17q21 0 40 4q20 4 28 8l8 5q0 32 8 47t29 15q15 0 25 -12.5t10 -33.5q0 -58 -148 -58zM362 -45q0 -77 15 -120t15 -56q0 -11 -5.5 -18t-13.5 -7q-37 0 -37 205v41h-105l-183 487q-3 9 -3 15
q0 11 16 11h56q18 0 25 -4.5t12 -19.5l171 -457h12q5 180 29 300t48 158q13 22 96 23q13 0 13 -12q0 -20 -6 -65t-14 -45h-31q-31 0 -43 -6.5t-21 -26.5q-9 -19 -18.5 -57t-18.5 -131t-9 -215z" />
    <glyph glyph-name="afii10193" unicode="&#x45f;" horiz-adv-x="534" 
d="M355 25v487h103v-512h-139v-205h-102v205h-138v512h102v-487h174z" />
    <glyph glyph-name="uni0460" unicode="&#x460;" horiz-adv-x="1005" 
d="M420 628q0 44 -11 54.5t-60 10.5v24h263v-24q-48 0 -59 -10t-11 -55v-149q0 -145 45 -251t94 -156q51 67 92.5 167.5t41.5 223.5v151q0 44 -19 61.5t-64 17.5v24h213v-24q-45 0 -63.5 -17.5t-18.5 -61.5v-79q0 -97 -22.5 -189t-54.5 -154.5t-64 -111t-54 -71.5l-23 -23
q-4 3 -11.5 8.5t-29 26.5t-41.5 44.5t-45 62.5t-44 82q-18 -43 -40.5 -82t-41 -64t-35 -43.5t-25.5 -26.5l-9 -8q-9 6 -24.5 19t-54.5 58t-68.5 97t-54 137.5t-24.5 178.5v152q0 45 -11 55t-59 10v24h263v-24q-49 0 -60 -10.5t-11 -54.5v-149q0 -145 45 -251t94 -156
q63 83 99 183q-37 104 -37 221v152z" />
    <glyph glyph-name="uni0461" unicode="&#x461;" horiz-adv-x="787" 
d="M537 -10q-9 5 -24.5 14.5t-53.5 43t-66 73.5q-24 -43 -54 -76q-31 -33 -49 -44l-18 -11q-9 5 -23 14t-51 41t-65 69t-51 98t-23 128q0 53 14 96q14 44 28 60l14 16h98q-6 -8 -14.5 -22.5t-22.5 -59t-14 -88.5q0 -100 42 -174t91 -113q47 42 77 102q-48 86 -48 183
q0 53 14 96q14 44 28 60l13 16h98q-6 -8 -14.5 -22.5t-22.5 -59t-14 -88.5q0 -100 42 -174t91 -113q109 97 109 242q0 46 -17 83t-34 68t-17 64h100q2 -8 13.5 -36t11.5 -60q0 -92 -19.5 -170t-47 -123t-55 -77t-47.5 -44z" />
    <glyph glyph-name="afii10146" unicode="&#x462;" horiz-adv-x="809" 
d="M187 580q-29 0 -53.5 -54t-24.5 -104h-25q0 38 -13 78t-27 60l-13 20v24h227v24q0 44 -11 54.5t-60 10.5v24h264v-24q-49 0 -60 -10.5t-11 -54.5v-24h227v-24q-6 -8 -15 -22.5t-23.5 -56t-14.5 -79.5h-25q0 50 -24.5 104t-53.5 54h-71v-156q47 -56 117 -77t181 -21v-238
q0 -44 11 -54t60 -10v-24h-562v24q49 0 60 10t11 54v492h-71zM556 302q-112 14 -176 71v-285q0 -44 11 -54t60 -10h34q49 0 60 10t11 54v214z" />
    <glyph glyph-name="afii10194" unicode="&#x463;" horiz-adv-x="720" 
d="M368 25h174q-25 96 -63 176t-70 122l-41 -23v-275zM265 717h103v-205h241v-25q-6 -8 -15 -22t-23.5 -55.5t-14.5 -79.5h-25q0 39 -20 84t-54 73h-89v-159l77 45q43 -35 111 -135t121 -238h-412v487h-106v-184h-103v209h209v205z" />
    <glyph glyph-name="uni0464" unicode="&#x464;" horiz-adv-x="1017" 
d="M887 127q-16 -30 -24.5 -44t-28 -36t-41 -32t-58 -18t-84.5 -8q-132 0 -201.5 97t-71.5 260h-124v-258q0 -44 11 -54t60 -10v-24h-264v24q49 0 60 10t11 54v540q0 44 -11 54.5t-60 10.5v24h264v-24q-49 0 -60 -10.5t-11 -54.5v-257h124q2 162 71.5 259t201.5 97
q48 0 84.5 -8t59 -18.5t41.5 -31.5t28.5 -36.5t23.5 -44.5q22 -44 79 -44v-24h-264v24q50 0 65.5 11t15.5 33q0 42 -33.5 78t-97.5 36q-74 0 -107.5 -72t-38.5 -209q59 48 137 48q105 0 151 -19.5t72 -73.5q7 -16 10.5 -21.5t13.5 -19.5t25 -20t35 -6v-23h-263v23
q38 0 57.5 7t23.5 15.5t4 24.5q0 28 -29 57t-98 29q-78 0 -140 -60v-25q0 -170 32.5 -257t114.5 -87q64 0 97.5 36t33.5 78q0 23 -15.5 34t-65.5 11v24h264v-24q-57 0 -80 -45z" />
    <glyph glyph-name="uni0465" unicode="&#x465;" horiz-adv-x="683" 
d="M489 391q-47 55 -56 72q-47 -31 -63 -62t-16 -84q0 -16 3 -31h205v-25h-200q13 -42 44.5 -83t64 -75t41.5 -54q49 37 62 78l57 -21q-63 -83 -167 -120q-87 38 -149.5 121.5t-62.5 146.5v7h-71v-261h-102v512h102v-226h75q9 41 33 83t74 86t115 67q58 -25 112 -79z" />
    <glyph glyph-name="uni0466" unicode="&#x466;" horiz-adv-x="927" 
d="M433 665q-130 -167 -174 -294h362q-65 137 -188 294zM707 72q0 27 -21 111t-55 163h-109v-258q0 -44 11 -54t60 -10v-24h-263v24q49 0 59.5 10t10.5 54v258h-149q-31 -103 -31 -258q0 -44 11 -54t60 -10v-24h-263v24q49 0 59.5 10t10.5 54q0 115 91 286t221 318h-64v25
h243v-25h-33q97 -109 169.5 -271t97.5 -302q1 -6 3.5 -23t4 -21.5t4.5 -16.5t7.5 -15.5t11.5 -9.5t17 -7.5t24 -1.5v-24h-263v24q41 0 58 10.5t17 37.5z" />
    <glyph glyph-name="uni0467" unicode="&#x467;" horiz-adv-x="717" 
d="M330 484q-111 -160 -151 -294h323q-60 150 -172 294zM37 0q28 111 102.5 249.5t167.5 262.5h133q74 -98 138 -240t96 -272h-116q-14 70 -48 166h-100v-166h-103v166h-135q-20 -80 -24 -166h-111z" />
    <glyph glyph-name="uni0468" unicode="&#x468;" horiz-adv-x="1259" 
d="M1038 72q0 28 -20.5 111.5t-54.5 162.5h-109v-258q0 -44 11 -54t60 -10v-24h-263v24q49 0 59.5 10t10.5 54v258h-149q-31 -103 -31 -258q0 -44 11 -54t60 -10v-24h-264v24q49 0 60 10t11 54q0 101 77 258h-253v-258q0 -44 11 -54t60 -10v-24h-264v24q49 0 60 10t11 54
v540q0 44 -11 54.5t-60 10.5v24h264v-24q-49 0 -60 -10.5t-11 -54.5v-257h265q86 167 222 321h-63v25h243v-25h-33q97 -109 169.5 -271t97.5 -302q1 -6 3.5 -23t4 -21.5t4.5 -16.5t7.5 -15.5t11.5 -9.5t17 -7.5t24 -1.5v-24h-263v24q41 0 57.5 10.5t16.5 37.5zM765 665
q-130 -167 -174 -294h361q-66 141 -187 294z" />
    <glyph glyph-name="uni0469" unicode="&#x469;" horiz-adv-x="909" 
d="M521 484q-109 -157 -150 -294h322q-60 150 -172 294zM351 286q64 112 148 226h133q74 -98 137.5 -240t95.5 -272h-115q-13 63 -49 166h-100v-166h-102v166h-135q-20 -80 -24 -166h-112q25 106 109 261h-156v-261h-102v512h102v-226h170z" />
    <glyph glyph-name="uni046A" unicode="&#x46a;" horiz-adv-x="1035" 
d="M457 346q-57 0 -99.5 -27.5t-63.5 -70.5t-30.5 -83t-9.5 -76q0 -44 11 -54.5t60 -10.5v-24h-264v24q10 0 17.5 0.5t14 0.5t10.5 2.5t7.5 2.5t6 5t4 6t3.5 8.5t2.5 10t2.5 13.5t3 16q9 46 21 82.5t36 75.5t57 64.5t85 42.5t118 17l-243 346h620l-242 -346h1q67 0 119 -17
t85 -42.5t57 -64.5t36 -75.5t21 -82.5t14 -53q10 -12 57 -12v-24h-263v24q48 0 59 10t11 55q0 28 -5 59t-19.5 67.5t-36 64.5t-58.5 47t-83 19v-258q0 -44 10.5 -54t59.5 -10v-24h-263v24q49 0 60 10t11 54v258zM574 400l205 292h-408z" />
    <glyph glyph-name="uni046B" unicode="&#x46b;" horiz-adv-x="739" 
d="M319 286v2l-188 224h479l-188 -224v-2q252 -19 252 -286h-103q0 125 -43.5 188.5t-105.5 76.5v-265h-103v265q-62 -13 -105.5 -76.5t-43.5 -188.5h-102q0 80 21.5 137.5t60 87.5t79 43.5t90.5 17.5zM412 313l145 174h-292z" />
    <glyph glyph-name="uni046C" unicode="&#x46c;" horiz-adv-x="1339" 
d="M879 400l204 292h-408zM753 371l-243 346h620l-242 -346h1q67 0 119 -17t85 -42.5t57 -64.5t36 -75.5t21 -82.5t14 -53q10 -12 57 -12v-24h-263v24q48 0 59 10t11 55q0 28 -5 59t-19.5 67.5t-36 64.5t-58.5 47t-83 19v-258q0 -44 10.5 -54t59.5 -10v-24h-263v24
q49 0 60 10t11 54v258q-57 0 -99.5 -27.5t-63.5 -70.5t-30.5 -83t-9.5 -76q0 -44 11 -54.5t60 -10.5v-24h-263v24q10 0 17.5 0.5t14 0.5t10.5 2t7.5 3t6 5t4 6t3 8.5t2 10t2.5 13.5t3 16q18 92 57 158.5t118 98.5h-357v-258q0 -44 11 -54t60 -10v-24h-264v24q49 0 60 10
t11 54v540q0 44 -11 54.5t-60 10.5v24h264v-24q-49 0 -60 -10.5t-11 -54.5v-257h499z" />
    <glyph glyph-name="uni046D" unicode="&#x46d;" horiz-adv-x="920" 
d="M79 512h102v-226h320v2l-189 224h480l-189 -224v-2q252 -19 252 -286h-102q0 125 -44 188.5t-106 76.5v-265h-102v265q-62 -13 -106 -76.5t-44 -188.5h-102q0 202 141 261h-209v-261h-102v512zM593 313l145 174h-292z" />
    <glyph glyph-name="uni046E" unicode="&#x46e;" horiz-adv-x="646" 
d="M227 -154q-79 0 -125.5 39t-46.5 90q0 60 32 89.5t79 29.5q36 0 103 -36t112 -36q37 0 63.5 47.5t26.5 123.5q0 78 -35 131.5t-113 53.5q-31 0 -55 -19t-35.5 -41t-23.5 -41t-21 -19q-28 0 -45.5 16t-17.5 29t8.5 28.5t27 33.5t57 29.5t90.5 11.5q61 0 92 45t31 108
q0 67 -29.5 105t-77.5 38q-57 0 -83.5 -45.5t-26.5 -144.5q0 -14 -61 -14t-61 14q0 51 18 94.5t63.5 77.5t113.5 41q-14 12 -54 44.5t-57 49.5t-17 26q0 11 23 30t45 19q8 0 17.5 -8t20 -23.5t19.5 -31t22 -39t22 -37.5l60 119q12 23 94 23q15 0 15 -12q0 -19 -6.5 -64.5
t-14.5 -45.5h-30q-70 0 -85 -27l-11 -22q101 -5 151.5 -50t50.5 -137q0 -111 -109 -147q78 -24 114 -79.5t36 -122.5q0 -100 -56.5 -150t-163.5 -50q-39 0 -73.5 16t-58.5 31.5t-38 15.5q-22 0 -46 -17t-24 -36q0 -70 117 -70q60 0 103.5 13t75 26t60.5 13q24 0 54 -29
t30 -41q0 -29 -27 -53.5t-52 -24.5q-15 0 -41.5 41t-38.5 41q-21 0 -81.5 -35t-105.5 -35z" />
    <glyph glyph-name="uni046F" unicode="&#x46f;" horiz-adv-x="563" 
d="M333 15q30 0 50 30.5t20 86.5q0 55 -26 85.5t-90 30.5q-28 0 -44.5 -10.5t-21.5 -23.5t-13.5 -23.5t-21.5 -10.5q-39 0 -39 34q0 27 40 45.5t87 18.5q49 0 73 35.5t24 84.5q0 51 -22.5 76.5t-61.5 25.5q-46 0 -66 -31t-20 -105q0 -12 -50 -12q-53 0 -53 12q0 60 40 106
t121 53q-16 14 -51 42.5t-53 45.5t-18 26q0 10 21 27t41 17q7 0 15.5 -7t17.5 -21.5t17 -28.5t20 -34.5t20 -34.5l54 109q9 19 85 19q13 0 13 -10q0 -18 -5.5 -59t-12.5 -41h-28q-33 0 -50.5 -4.5t-25.5 -19.5l-14 -25q168 -6 168 -141q0 -40 -23.5 -73.5t-66.5 -46.5
q123 -36 123 -133q0 -140 -179 -140q-33 0 -54 9t-28.5 19.5t-21 19.5t-34.5 9q-22 0 -39 -13.5t-17 -33.5q0 -34 22 -52t81 -18q60 0 99 13t66 26t56 13q24 0 54 -29t31 -41q0 -29 -28 -53.5t-53 -24.5q-15 0 -31.5 47t-28.5 47q-20 0 -50 -20.5t-66.5 -41t-71.5 -20.5
q-78 0 -118 38t-40 91q0 110 112 110q32 0 53 -7t31 -17.5t19 -21t24 -17.5t39 -7z" />
    <glyph glyph-name="uni0470" unicode="&#x470;" horiz-adv-x="733" 
d="M426 88q0 -44 11 -54t60 -10v-24h-264v24q49 0 60 10t11 54v25h-120l-149 487q-4 12 -4 14q0 12 17 12h67q18 0 25 -5t12 -19l137 -450h15v476q0 44 -11 54.5t-60 10.5v24h264v-24q-49 0 -60 -10.5t-11 -54.5v-476h43l121 451q4 13 10 16q15 7 82 7q14 0 14 -13
q0 -20 -6 -64.5t-14 -44.5h-42q-30 0 -35 -4t-10 -24l-97 -363h-66v-25z" />
    <glyph glyph-name="uni0471" unicode="&#x471;" horiz-adv-x="694" 
d="M395 -154h-102v154h-98l-150 487q-4 12 -4 15q0 11 17 11h42q18 0 25 -5t12 -19l137 -450h19v678h102v-678h33l121 451q4 13 10 16q15 7 82 7q14 0 14 -12q0 -20 -6 -65t-14 -45h-42q-30 0 -35 -3.5t-10 -23.5l-97 -364h-56v-154z" />
    <glyph glyph-name="afii10147" unicode="&#x472;" horiz-adv-x="892" 
d="M215 334h-19q-34 -28 -54.5 -73.5t-20.5 -84.5h-25q0 38 -13 78t-27 60l-13 20v24h177q19 82 58 167.5t84.5 144t79.5 58.5q50 0 121.5 -121.5t100.5 -248.5h177v-24q-6 -8 -15 -22.5t-24 -56t-15 -79.5h-24q0 39 -20.5 84.5t-54.5 73.5h-19q8 -43 8 -74
q0 -63 -10.5 -109.5t-36.5 -84t-73 -57t-115 -19.5t-115 19.5t-73 57t-36.5 84t-10.5 109.5q0 31 8 74zM548 334h-212q-1 -24 -1 -73q0 -113 26 -180t81 -67t81 67t26 180q0 49 -1 73zM547 358q-6 111 -24.5 193t-40 117t-40.5 35t-40.5 -35t-40 -117t-24.5 -193h210z" />
    <glyph glyph-name="afii10195" unicode="&#x473;" horiz-adv-x="779" 
d="M738 265v-24q-6 -8 -15 -22.5t-23.5 -56t-14.5 -79.5h-25q0 35 -16.5 75.5t-44.5 69.5q-10 -238 -209 -238q-200 0 -210 238q-28 -29 -44.5 -69.5t-16.5 -75.5h-25q0 38 -13 77.5t-27 59.5l-13 21v24h138q3 257 211 257q207 0 210 -257h138zM498 265q0 61 -3.5 99
t-14.5 71t-33 48t-57 15q-67 0 -87.5 -55t-20.5 -178h216zM498 241h-216q0 -60 3.5 -96.5t14.5 -69t33 -47t57 -14.5q28 0 47.5 10.5t31 28t18 48t9 62t2.5 78.5z" />
    <glyph glyph-name="afii10148" unicode="&#x474;" horiz-adv-x="705" 
d="M86 628q-11 42 -32 53.5t-73 11.5v24h263v-24q-53 0 -53 -19q0 -2 4 -18l164 -609l145 647q2 8 10.5 12.5t36.5 7.5t80 3q14 0 14 -12q0 -20 -6 -65t-14 -45h-42q-41 0 -52.5 -4t-15.5 -24l-131 -567h-127z" />
    <glyph glyph-name="afii10196" unicode="&#x475;" horiz-adv-x="559" 
d="M274 39h17l121 451q4 13 10 16q15 7 82 7q14 0 14 -12q0 -20 -6 -65t-14 -45h-42q-30 0 -35 -3.5t-10 -23.5l-98 -364h-118l-150 487q-4 12 -4 15q0 11 17 11h42q18 0 25 -5t12 -19z" />
    <glyph glyph-name="uni0476" unicode="&#x476;" horiz-adv-x="705" 
d="M301 984l193 -204l-25 -27l-231 160zM110 984l193 -204l-25 -27l-231 160zM86 628q-11 42 -32 53.5t-73 11.5v24h263v-24q-53 0 -53 -19q0 -2 4 -18l164 -609l145 647q2 8 10.5 12.5t36.5 7.5t80 3q14 0 14 -12q0 -20 -6 -65t-14 -45h-42q-41 0 -52.5 -4t-15.5 -24
l-131 -567h-127z" />
    <glyph glyph-name="uni0477" unicode="&#x477;" horiz-adv-x="559" 
d="M84 817l193 -204l-25 -27l-231 160zM256 817l193 -204l-25 -27l-231 160zM274 39h17l121 451q4 13 10 16q15 7 82 7q14 0 14 -12q0 -20 -6 -65t-14 -45h-42q-30 0 -35 -3.5t-10 -23.5l-98 -364h-118l-150 487q-4 12 -4 15q0 11 17 11h42q18 0 25 -5t12 -19z" />
    <glyph glyph-name="uni0478" unicode="&#x478;" horiz-adv-x="1100" 
d="M894 -45q0 -77 15 -120t15 -56q0 -11 -5.5 -18t-13.5 -7q-37 0 -37 205v41h-105l-183 487q-3 9 -3 15q0 11 16 11h56q18 0 25 -4.5t12 -19.5l171 -457h12q5 180 29 300t48 158q13 22 96 23q13 0 13 -12q0 -20 -6 -65t-14 -45h-31q-31 0 -43 -6.5t-21 -26.5
q-9 -19 -18.5 -57t-18.5 -131t-9 -215zM317 703q-43 0 -71 -23.5t-42 -72t-19.5 -106.5t-5.5 -143q0 -68 3 -117t12 -94t24 -73t40 -44t59 -16q42 0 70 23.5t42.5 72t20 106.5t5.5 143t-5.5 143.5t-20 106.5t-42.5 71t-70 23zM317 728q134 0 200 -100.5t66 -269.5
t-66 -268.5t-200 -99.5t-200 100t-66 269t66 269t200 100z" />
    <glyph glyph-name="uni0479" unicode="&#x479;" horiz-adv-x="907" 
d="M710 170q-9 -93 -9 -192.5t15 -142.5t15 -55t-5.5 -19t-13.5 -7q-37 0 -37 205v41h-105l-183 487q-3 9 -3 15q0 11 16 11h56q18 0 25 -4.5t12 -19.5l171 -457h12q5 180 29 300t48 158q13 22 96 23q13 0 13 -16t-6 -61t-14 -45h-31q-31 0 -43 -6.5t-21 -26t-18.5 -57.5
t-18.5 -131zM285 49q41 36 41 147q0 58 -16 100.5t-55.5 97.5t-47.5 69q-49 -32 -49 -146q0 -60 21.5 -104.5t56.5 -89t49 -74.5zM252 522q67 -29 124.5 -109.5t57.5 -165.5t-57 -159t-140 -102q-67 29 -124.5 109.5t-57.5 165.5t57 159t140 102z" />
    <glyph glyph-name="uni047A" unicode="&#x47a;" horiz-adv-x="776" 
d="M388 -74q-25 0 -38.5 19t-15.5 48q-131 17 -207 110.5t-76 255.5t76 255.5t207 110.5q2 28 15.5 47t38.5 19t39 -19t16 -47q131 -17 207 -110.5t76 -256t-76 -255.5t-207 -110q-2 -28 -16 -47.5t-39 -19.5zM336 20q9 54 52.5 54t52.5 -52q157 45 157 337q0 133 -38 224
t-119 114q-4 -23 -17.5 -38.5t-35.5 -15.5q-43 0 -52 54q-56 -17 -92 -67q-66 -91 -65 -272q0 -293 157 -338z" />
    <glyph glyph-name="uni047B" unicode="&#x47b;" horiz-adv-x="623" 
d="M258 -7q-106 14 -156.5 85t-50.5 179t50.5 178t156.5 84v1q2 29 16 47.5t38 18.5t38.5 -18.5t16.5 -47.5v-1q106 -14 155.5 -84t49.5 -179t-49.5 -179t-155.5 -84q-2 -29 -16.5 -48t-38.5 -19t-38 18.5t-16 48.5zM365 23q100 37 100 234q0 195 -100 232q-5 -23 -19 -37
t-34 -14q-42 0 -52 51q-101 -36 -101 -233t101 -233q4 23 17.5 37t34.5 14q44 0 53 -51z" />
    <glyph glyph-name="uni047C" unicode="&#x47c;" horiz-adv-x="1005" 
d="M582 269q0 -255 131 -255q42 0 70 23t42 71.5t19.5 106t5.5 143.5q0 345 -117 345q-34 0 -57 -10q27 -24 27 -58q0 -32 -22 -54t-53 -22q-32 0 -54 22.5t-22 53.5q0 93 183 93q111 0 177 -103t66 -266q0 -170 -64.5 -269.5t-198.5 -99.5q-131 0 -194 105
q-63 -105 -193 -105q-134 0 -198.5 99.5t-64.5 269.5q0 163 65.5 266t176.5 103q183 0 183 -93q0 -32 -22 -54t-53 -22t-53.5 22.5t-22.5 53.5q0 33 28 58q-23 10 -58 10q-116 0 -116 -345q0 -86 5.5 -143.5t19.5 -106t42 -71.5t70 -23q131 0 131 255q0 45 -11 55.5
t-60 10.5v23h262v-23q-48 0 -59 -10.5t-11 -55.5zM508 965q-32 0 -53 -12t-30 -31t-11 -31.5t-2 -24.5q0 -54 -40 -54q-42 0 -42 39q0 15 7 36t24 46t52 42.5t83 17.5q42 0 140 -45t134 -45q30 0 30 -33v-2q0 -35 -11 -47.5t-37 -12.5q-19 0 -41.5 16t-45.5 39l-47 47
q-24 23 -53 39t-57 16zM506 936q36 0 68 -28t32 -68q0 -47 -27 -81.5t-85 -34.5v19q68 0 68 57q0 38 -50 38q-28 0 -43 14t-15 37q0 19 14 33t38 14z" />
    <glyph glyph-name="uni047D" unicode="&#x47d;" horiz-adv-x="787" 
d="M364 795q-32 0 -53 -12t-30 -31t-11 -31.5t-2 -24.5q0 -54 -40 -54q-42 0 -42 39q0 15 7 36t24 46t52 42.5t83 17.5q42 0 140 -45t134 -45q30 0 30 -33v-2q0 -35 -11 -47.5t-37 -12.5q-19 0 -41.5 16t-45.5 39l-47 47q-24 23 -53 39t-57 16zM362 766q36 0 68 -28t32 -68
q0 -47 -27 -81.5t-85 -34.5v19q68 0 68 57q0 38 -50 38q-28 0 -43 14t-15 37q0 19 14 33t38 14zM537 -10q-9 5 -24.5 14.5t-53.5 43t-66 73.5q-24 -43 -54 -76q-31 -33 -49 -44l-18 -11q-9 5 -23 14t-51 41t-65 69t-51 98t-23 128q0 53 14 96q14 44 28 60l14 16h98
q-6 -8 -14.5 -22.5t-22.5 -59t-14 -88.5q0 -100 42 -174t91 -113q47 42 77 102q-48 86 -48 183q0 53 14 96q14 44 28 60l13 16h98q-6 -8 -14.5 -22.5t-22.5 -59t-14 -88.5q0 -100 42 -174t91 -113q109 97 109 242q0 46 -17 83t-34 68t-17 64h100q2 -8 13.5 -36t11.5 -60
q0 -92 -19.5 -170t-47 -123t-55 -77t-47.5 -44z" />
    <glyph glyph-name="uni047E" unicode="&#x47e;" horiz-adv-x="1005" 
d="M420 628q0 44 -11 54.5t-60 10.5v24h263v-24q-48 0 -59 -10t-11 -55v-149q0 -145 45 -251t94 -156q51 67 92.5 167.5t41.5 223.5v151q0 44 -19 61.5t-64 17.5v24h213v-24q-45 0 -63.5 -17.5t-18.5 -61.5v-79q0 -97 -22.5 -189t-54.5 -154.5t-64 -111t-54 -71.5l-23 -23
q-4 3 -11.5 8.5t-29 26.5t-41.5 44.5t-45 62.5t-44 82q-18 -43 -40.5 -82t-41 -64t-35 -43.5t-25.5 -26.5l-9 -8q-9 6 -24.5 19t-54.5 58t-68.5 97t-54 137.5t-24.5 178.5v152q0 45 -11 55t-59 10v24h263v-24q-49 0 -60 -10.5t-11 -54.5v-149q0 -145 45 -251t94 -156
q63 83 99 183q-37 104 -37 221v152zM430 764v100q-40 0 -59 -3t-34.5 -16t-19.5 -38t-4 -72h-24q0 38 -8.5 70.5t-16.5 45.5l-8 13v25h451v-25q-33 -43 -33 -129h-25q0 47 -4 72t-19.5 38t-34.5 16t-59 3v-100h-102z" />
    <glyph glyph-name="uni047F" unicode="&#x47f;" horiz-adv-x="787" 
d="M537 -10q-9 5 -24.5 14.5t-53.5 43t-66 73.5q-24 -43 -54 -76q-31 -33 -49 -44l-18 -11q-9 5 -23 14t-51 41t-65 69t-51 98t-23 128q0 53 14 96q14 44 28 60l14 16h98q-6 -8 -14.5 -22.5t-22.5 -59t-14 -88.5q0 -100 42 -174t91 -113q47 42 77 102q-48 86 -48 183
q0 53 14 96q14 44 28 60l13 16h98q-6 -8 -14.5 -22.5t-22.5 -59t-14 -88.5q0 -100 42 -174t91 -113q109 97 109 242q0 46 -17 83t-34 68t-17 64h100q2 -8 13.5 -36t11.5 -60q0 -92 -19.5 -170t-47 -123t-55 -77t-47.5 -44zM365 573v101q-40 0 -59 -3t-34.5 -16t-19.5 -38
t-4 -72h-25q0 38 -8.5 70.5t-16.5 45.5l-8 13v24h451v-24q-33 -43 -33 -129h-24q0 47 -4 72t-19.5 38t-34.5 16t-59 3v-101h-102z" />
    <glyph glyph-name="uni0480" unicode="&#x480;" horiz-adv-x="701" 
d="M440 260l3 -172q1 -44 11.5 -54t59.5 -10v-24h-263v24q47 0 59 9t12 46v9l-4 149q-56 3 -98 13.5t-82 35.5t-62 74.5t-22 121.5q0 105 65.5 175.5t197.5 70.5q121 0 178.5 -36t76.5 -112q2 -7 5 -21t4 -17.5t4.5 -11t7 -9t10.5 -4t16 -3t24 -0.5v-24h-263v24
q48 0 59.5 10.5t11.5 55.5q0 49 -32.5 86t-99.5 37q-80 0 -108.5 -57t-28.5 -165q0 -45 8 -80.5t20 -58.5t33.5 -39t40 -24.5t49.5 -12.5t51.5 -5t55.5 -1z" />
    <glyph glyph-name="uni0481" unicode="&#x481;" horiz-adv-x="467" 
d="M281 391q-49 58 -57 72q-47 -31 -63 -62t-16 -84q0 -44 21 -87.5t47 -71t53.5 -59t36.5 -50.5q51 38 63 78l56 -21v-311h-103v220q-31 -18 -64 -29q-87 38 -149.5 121.5t-62.5 146.5q0 38 21.5 86.5t75.5 102t129 79.5q58 -25 112 -79z" />
    <glyph glyph-name="uni0483" unicode="&#x483;" 
d="M-318 696q32 0 75 -5t64 -5q18 0 36 2q17 2 27 4l10 1q0 55 39 55q42 0 42 -39q0 -52 -107 -52q-32 0 -75 5.5t-64 5.5q-18 0 -36 -2q-17 -2 -27 -4l-10 -2q0 -54 -40 -54q-42 0 -42 39q0 51 108 51z" />
    <glyph glyph-name="uni0484" unicode="&#x484;" 
d="M-362 621.5q-5 7.5 -5 40t49 54.5t98.5 22t98 -21.5t48.5 -54.5t-5 -40.5t-26.5 -7.5t-25.5 9t-4 53q0 17 -26 27t-59.5 10t-59.5 -10t-26 -27q0 -43 -4.5 -52.5t-26 -9.5t-26.5 7.5z" />
    <glyph glyph-name="uni0485" unicode="&#x485;" 
d="M-230 838q24 0 38.5 -14t14.5 -33q0 -23 -14.5 -37t-42.5 -14q-51 0 -51 -38q0 -57 68 -57v-19q-58 0 -85 34t-27 82q0 40 32 68t67 28z" />
    <glyph glyph-name="uni0486" unicode="&#x486;" 
d="M-205 838q36 0 68 -28t32 -68q0 -47 -27 -81.5t-85 -34.5v19q68 0 68 57q0 38 -50 38q-28 0 -43 14t-15 37q0 19 14 33t38 14z" />
    <glyph glyph-name="uni0487" unicode="&#x487;" 
d="M-235 739q-32 0 -53 -12t-30 -31t-11 -31.5t-2 -24.5q0 -54 -40 -54q-42 0 -42 39q0 15 7 36t24 46t52 42.5t83 17.5q42 0 140 -45t134 -45q30 0 30 -33v-2q0 -35 -11 -47.5t-37 -12.5q-19 0 -41.5 16t-45.5 39l-47 47q-24 23 -53 39t-57 16z" />
    <glyph glyph-name="afii10050" unicode="&#x490;" horiz-adv-x="584" 
d="M325 692q-49 0 -60 -10.5t-11 -54.5v-539q0 -44 11 -54t60 -10v-24h-264v24q49 0 60 10t11 54v539q0 44 -11 54.5t-60 10.5v25h264q54 0 87.5 51.5t33.5 105.5h25q0 -38 13.5 -77.5t26.5 -59.5l13 -20v-25h-199z" />
    <glyph glyph-name="afii10098" unicode="&#x491;" horiz-adv-x="436" 
d="M61 512h170q68 0 87.5 23t19.5 106h24q0 -38 8 -70.5t16 -45.5l9 -13v-25h-231v-487h-103v512z" />
    <glyph glyph-name="Ygrave" unicode="&#x1ef2;" horiz-adv-x="620" 
d="M204 984l193 -204l-25 -27l-231 160zM279 39q-8 -31 -34.5 -41t-109.5 -10q-14 0 -14 12q0 20 6 65t14 45h85q32 0 42 4.5t14 22.5l16 63l-203 428q-20 41 -38.5 53t-66.5 12v24h263v-24q-52 0 -52 -19q0 -11 16 -46l124 -261l84 327q2 9 7.5 13t32.5 7t81 3q14 0 14 -12
q0 -20 -6 -65t-14 -45h-65q-30 0 -40.5 -6t-14.5 -22z" />
    <glyph glyph-name="ygrave" unicode="&#x1ef3;" horiz-adv-x="568" 
d="M164 815l193 -204l-25 -27l-231 160zM362 -45q0 -77 15 -120t15 -56q0 -11 -5.5 -18t-13.5 -7q-37 0 -37 205v41h-105l-183 487q-3 9 -3 15q0 11 16 11h56q18 0 25 -4.5t12 -19.5l171 -457h12q5 180 29 300t48 158q13 22 96 23q13 0 13 -12q0 -20 -6 -65t-14 -45h-31
q-31 0 -43 -6.5t-21 -26.5q-9 -19 -18.5 -57t-18.5 -131t-9 -215z" />
    <glyph glyph-name="endash" unicode="&#x2013;" horiz-adv-x="534" 
d="M33 381h445v-55h-445v55z" />
    <glyph glyph-name="emdash" unicode="&#x2014;" horiz-adv-x="784" 
d="M33 381h695v-55h-695v55z" />
    <glyph glyph-name="quoteleft" unicode="&#x2018;" horiz-adv-x="192" 
d="M45 600q0 50 18 98t32 68t25 31h24q-22 -49 -22 -91q0 -12 12 -52t12 -74q0 -4 -3 -7.5t-7 -3.5h-81q-4 0 -7 3.5t-3 7.5v20z" />
    <glyph glyph-name="quoteright" unicode="&#x2019;" horiz-adv-x="192" 
d="M146 766q0 -50 -17.5 -98t-31.5 -68t-25 -31h-25q23 51 23 91q0 12 -12.5 52t-12.5 74q0 4 3 7.5t7 3.5h81q4 0 7 -3.5t3 -7.5v-20z" />
    <glyph glyph-name="quotesinglbase" unicode="&#x201a;" horiz-adv-x="192" 
d="M146 72q0 -50 -17.5 -98t-31.5 -68t-25 -31h-25q23 51 23 91q0 12 -12.5 52t-12.5 74q0 10 10 10h81q10 0 10 -10v-20z" />
    <glyph glyph-name="quotedblleft" unicode="&#x201c;" horiz-adv-x="356" 
d="M45 600q0 50 18 98t32 68t25 31h24q-22 -49 -22 -91q0 -12 12 -52t12 -74q0 -4 -3 -7.5t-7 -3.5h-81q-4 0 -7 3.5t-3 7.5v20zM209 600q0 50 18 98t32 68t25 31h24q-22 -49 -22 -91q0 -12 12 -52t12 -74q0 -4 -3 -7.5t-7 -3.5h-81q-4 0 -7 3.5t-3 7.5v20z" />
    <glyph glyph-name="quotedblright" unicode="&#x201d;" horiz-adv-x="356" 
d="M146 766q0 -50 -17.5 -98t-31.5 -68t-25 -31h-25q23 51 23 91q0 12 -12.5 52t-12.5 74q0 4 3 7.5t7 3.5h81q4 0 7 -3.5t3 -7.5v-20zM310 766q0 -50 -17.5 -98t-31.5 -68t-25 -31h-25q23 51 23 91q0 12 -12.5 52t-12.5 74q0 4 3 7.5t7 3.5h81q4 0 7 -3.5t3 -7.5v-20z" />
    <glyph glyph-name="quotedblbase" unicode="&#x201e;" horiz-adv-x="356" 
d="M146 72q0 -50 -17.5 -98t-31.5 -68t-25 -31h-25q23 51 23 91q0 12 -12.5 52t-12.5 74q0 10 10 10h81q10 0 10 -10v-20zM310 72q0 -50 -17.5 -98t-31.5 -68t-25 -31h-25q23 51 23 91q0 12 -12.5 52t-12.5 74q0 10 10 10h81q10 0 10 -10v-20z" />
    <glyph glyph-name="ellipsis" unicode="&#x2026;" horiz-adv-x="573" 
d="M55 0q-10 0 -10 10v82q0 10 10 10h81q10 0 10 -10v-82q0 -10 -10 -10h-81zM246 0q-10 0 -10 10v82q0 10 10 10h81q10 0 10 -10v-82q0 -10 -10 -10h-81zM437 0q-10 0 -10 10v82q0 10 10 10h81q10 0 10 -10v-82q0 -10 -10 -10h-81z" />
    <glyph glyph-name="guilsinglleft" unicode="&#x2039;" horiz-adv-x="335" 
d="M61 306l183 214l30 -19l-104 -195l104 -194l-30 -20z" />
    <glyph glyph-name="guilsinglright" unicode="&#x203a;" horiz-adv-x="335" 
d="M274 306l-182 -214l-31 20l105 194l-105 195l31 19z" />
    <glyph glyph-name="afii61352" unicode="&#x2116;" horiz-adv-x="1085" 
d="M784 60q0 29 21.5 50t50.5 21t50 -21t21 -50t-21 -49.5t-50 -20.5t-50.5 20.5t-21.5 49.5zM858 612q70 -31 120.5 -98t50.5 -119q0 -51 -47.5 -118.5t-135.5 -98.5q-70 31 -120.5 98t-50.5 119q0 51 47.5 118.5t135.5 98.5zM885 229q35 26 46 51t11 68q0 34 -15 68.5
t-33.5 57.5t-41.5 49.5t-31 40.5q-38 -25 -50.5 -50t-12.5 -68q0 -36 17 -71t37.5 -57.5t43 -48t29.5 -40.5zM579 88q0 -44 10.5 -54t59.5 -10v-24h-263v24q49 0 60 10t11 54v130l-203 243v-373q0 -44 11 -54t60 -10v-24h-264v24q49 0 60 10t11 54v540q0 44 -11 54.5
t-60 10.5v24h264v-24q-49 0 -60 -10.5t-11 -54.5v-118l203 -241v359q0 44 -11 54.5t-60 10.5v24h263v-24q-48 0 -59 -10t-11 -55v-540z" />
    <glyph glyph-name="uni2DE0" unicode="&#x2de0;" 
d="M-227 889q61 0 116.5 -24.5t95.5 -67.5l-20 -11q-63 70 -192 70q-130 0 -193 -70l-19 11q40 43 95.5 67.5t116.5 24.5zM-123 594h-184v205h167v-21q-17 -11 -17 -46h-12q0 32 -9 39t-44 7h-34v-62q79 -1 106 -26t27 -96zM-256 614h82q-1 45 -17.5 60.5t-64.5 19.5v-80z
" />
    <glyph glyph-name="uni2DE1" unicode="&#x2de1;" 
d="M-123 594h-184v205h171q0 -68 -80 -90q55 -5 74 -29.5t19 -85.5zM-256 614h82q-1 45 -17.5 60.5t-64.5 19.5v-80zM-256 778v-62q39 3 53.5 15t15.5 47h-69zM-227 889q61 0 116.5 -24.5t95.5 -67.5l-20 -11q-63 70 -192 70q-130 0 -193 -70l-19 11q40 43 95.5 67.5
t116.5 24.5z" />
    <glyph glyph-name="uni2DE2" unicode="&#x2de2;" 
d="M-254 778v-184h-51v205h167v-21q-17 -11 -17 -46h-12q0 32 -9 39t-44 7h-34zM-227 889q61 0 116.5 -24.5t95.5 -67.5l-20 -11q-63 70 -192 70q-130 0 -193 -70l-19 11q40 43 95.5 67.5t116.5 24.5z" />
    <glyph glyph-name="uni2DE3" unicode="&#x2de3;" 
d="M-162 594h-139q-17 -11 -27 -29.5t-10 -34.5h-12q0 16 -7 32t-13 24l-7 8v20h61l62 185h52l63 -185h54v-20q-27 -29 -27 -64h-12q0 16 -10.5 34.5t-27.5 29.5zM-245 769l-52 -155h104zM-227 889q61 0 116.5 -24.5t95.5 -67.5l-20 -11q-63 70 -192 70q-130 0 -193 -70
l-19 11q40 43 95.5 67.5t116.5 24.5z" />
    <glyph glyph-name="uni2DE4" unicode="&#x2de4;" 
d="M-254 799h51v-80q38 10 56 28t18 52h51v-11q0 -31 -27 -49t-78 -31q51 -8 78.5 -34.5t27.5 -79.5h-51q0 88 -75 101v-101h-51v101q-75 -13 -75 -101h-51q0 97 107 114q-52 13 -79 31t-27 49v11h51q0 -34 18 -52t56 -28v80zM-227 889q61 0 116.5 -24.5t95.5 -67.5l-20 -11
q-63 70 -192 70q-130 0 -193 -70l-19 11q40 43 95.5 67.5t116.5 24.5z" />
    <glyph glyph-name="uni2DE5" unicode="&#x2de5;" 
d="M-231 688q-21 0 -34 -3t-16 -3t-10.5 7.5t-7.5 9.5q0 3 7 10t11 7q1 0 5.5 -1.5t14 -3t23.5 -1.5q25 0 36.5 12.5t11.5 31.5q0 29 -41 29q-43 0 -43 -44q0 -4 -26 -4t-26 4q0 26 23.5 45.5t71.5 19.5q92 0 92 -56q0 -16 -12 -30t-33 -19q61 -14 61 -53q0 -56 -89 -56
q-23 0 -41 8t-28 8q-5 0 -17.5 -10t-18.5 -10q-10 0 -21 7.5t-11 15.5q0 5 12 15.5t22 10.5q28 0 55 -12.5t51 -12.5q15 0 25 9.5t10 27.5q0 41 -57 41zM-227 889q61 0 116.5 -24.5t95.5 -67.5l-20 -11q-63 70 -192 70q-130 0 -193 -70l-19 11q40 43 95.5 67.5t116.5 24.5z
" />
    <glyph glyph-name="uni2DE6" unicode="&#x2de6;" 
d="M-311 799h51v-80q38 10 56 28t18 52h51v-11q0 -31 -27 -49t-79 -31q107 -17 107 -114h-51q0 88 -75 101v-101h-51v205zM-227 889q61 0 116.5 -24.5t95.5 -67.5l-20 -11q-63 70 -192 70q-130 0 -193 -70l-19 11q40 43 95.5 67.5t116.5 24.5z" />
    <glyph glyph-name="uni2DE7" unicode="&#x2de7;" 
d="M-166 792l43 -198h-52l-32 147q-63 -63 -63 -133l1 -14h-55q2 49 22.5 82t88.5 90l-7 33h42q10 0 12 -7zM-227 889q61 0 116.5 -24.5t95.5 -67.5l-20 -11q-63 70 -192 70q-130 0 -193 -70l-19 11q40 43 95.5 67.5t116.5 24.5z" />
    <glyph glyph-name="uni2DE8" unicode="&#x2de8;" 
d="M-115 792l43 -198h-52l-34 157q-1 -1 -25 -29.5t-31 -47.5l17 -80h-52l-33 149q-50 -57 -50 -133q0 -10 2 -16h-54q2 55 18 88t79 87l-7 30h42q10 0 12 -7l17 -77q52 49 59 61l-5 23h43q9 0 11 -7zM-227 889q61 0 116.5 -24.5t95.5 -67.5l-20 -11q-63 70 -192 70
q-130 0 -193 -70l-19 11q40 43 95.5 67.5t116.5 24.5z" />
    <glyph glyph-name="uni2DE9" unicode="&#x2de9;" 
d="M-259 594h-51v205h51v-58l87 -49v107h51v-205h-51v75l-87 48v-123zM-227 889q61 0 116.5 -24.5t95.5 -67.5l-20 -11q-63 70 -192 70q-130 0 -193 -70l-19 11q40 43 95.5 67.5t116.5 24.5z" />
    <glyph glyph-name="uni2DEA" unicode="&#x2dea;" 
d="M-203 618q21 12 28 24.5t7 34.5t-11 39.5t-29.5 34t-23.5 23.5q-24 -12 -32 -24t-8 -34t14 -40.5t32 -33.5t23 -24zM-215 803q43 -16 74.5 -49.5t31.5 -58.5t-29 -58t-84 -49q-43 16 -74.5 49t-31.5 58q0 26 29 59.5t84 48.5zM-227 889q61 0 116.5 -24.5t95.5 -67.5
l-20 -11q-63 70 -192 70q-130 0 -193 -70l-19 11q40 43 95.5 67.5t116.5 24.5z" />
    <glyph glyph-name="uni2DEB" unicode="&#x2deb;" 
d="M-310 799h189v-205h-51v184h-87v-184h-51v205zM-227 889q61 0 116.5 -24.5t95.5 -67.5l-20 -11q-63 70 -192 70q-130 0 -193 -70l-19 11q40 43 95.5 67.5t116.5 24.5z" />
    <glyph glyph-name="uni2DEC" unicode="&#x2dec;" 
d="M-227 889q61 0 116.5 -24.5t95.5 -67.5l-20 -11q-63 70 -192 70q-130 0 -193 -70l-19 11q40 43 95.5 67.5t116.5 24.5zM-248 569q0 -18 -14 -33.5t-28 -21.5l-15 -6l-14 16q18 12 18 36q0 40 -13.5 73.5t-13.5 61.5q0 26 29 59.5t84 48.5q43 -16 74.5 -49.5t31.5 -58.5
q0 -34 -41.5 -71t-98.5 -38q0 -2 0.5 -8t0.5 -9zM-254 613q91 1 91 59q0 22 -13 40.5t-33 35.5t-25 24q-24 -12 -32 -24t-8 -34q0 -21 3 -38t9 -35.5t8 -27.5z" />
    <glyph glyph-name="uni2DED" unicode="&#x2ded;" 
d="M-209 750q-18 16 -23 23q-24 -13 -32 -24.5t-8 -32.5q0 -22 14 -40.5t32 -33.5t23 -24q25 14 31 31l33 -13q-33 -35 -83 -48q-43 16 -74.5 49t-31.5 58q0 26 29 59.5t84 48.5q23 -8 55 -32zM-227 889q61 0 116.5 -24.5t95.5 -67.5l-20 -11q-63 70 -192 70
q-130 0 -193 -70l-19 11q40 43 95.5 67.5t116.5 24.5z" />
    <glyph glyph-name="uni2DEE" unicode="&#x2dee;" 
d="M-255 594v184q-37 0 -47.5 -7.5t-10.5 -38.5h-13q0 16 -4 28q-4 10 -8 14l-4 4v21h225v-21q-16 -11 -16 -46h-12q0 30 -11 38t-48 8v-184h-51zM-227 889q61 0 116.5 -24.5t95.5 -67.5l-20 -11q-63 70 -192 70q-130 0 -193 -70l-19 11q40 43 95.5 67.5t116.5 24.5z" />
    <glyph glyph-name="uni2DEF" unicode="&#x2def;" 
d="M-305 799h31l42 -59l35 50q6 9 60 9q6 0 6 -5q0 -8 -3 -26t-7 -18h-29q-26 0 -33 -9l-14 -21l90 -126h-59l-60 85l-59 -85h-31l74 104l-55 79q-5 7 -5 11q0 11 17 11zM-227 889q61 0 116.5 -24.5t95.5 -67.5l-20 -11q-63 70 -192 70q-130 0 -193 -70l-19 11
q40 43 95.5 67.5t116.5 24.5z" />
    <glyph glyph-name="uni2DF0" unicode="&#x2df0;" 
d="M-185 799h51v-185h76v-20q-27 -29 -27 -64h-12q0 16 -10 34.5t-27 29.5h-190v205h52v-185h87v185zM-227 889q61 0 116.5 -24.5t95.5 -67.5l-20 -11q-63 70 -192 70q-130 0 -193 -70l-19 11q40 43 95.5 67.5t116.5 24.5z" />
    <glyph glyph-name="uni2DF1" unicode="&#x2df1;" 
d="M-277 731q0 -49 45 -49q22 0 34 14t12 35v68h51v-205h-51v91q-19 -13 -56 -13q-36 0 -61 21t-25 51v55h51v-68zM-227 889q61 0 116.5 -24.5t95.5 -67.5l-20 -11q-63 70 -192.5 70t-192.5 -70l-19 11q40 43 95.5 67.5t116.5 24.5z" />
    <glyph glyph-name="uni2DF2" unicode="&#x2df2;" 
d="M-138 799h51v-205h-287v205h51v-185h67v185h51v-185h67v185zM-227 889q61 0 116.5 -24.5t95.5 -67.5l-20 -11q-63 70 -192 70q-130 0 -193 -70l-19 11q40 43 95.5 67.5t116.5 24.5z" />
    <glyph glyph-name="uni2DF3" unicode="&#x2df3;" 
d="M-138 799h51v-205h-118v-42h-51v42h-118v205h51v-185h67v185h51v-185h67v185zM-227 889q61 0 116.5 -24.5t95.5 -67.5l-20 -11q-63 70 -192 70q-130 0 -193 -70l-19 11q40 43 95.5 67.5t116.5 24.5z" />
    <glyph glyph-name="uni2DF4" unicode="&#x2df4;" 
d="M-45 705v-16q-27 -28 -27 -63h-12q0 14 -12.5 32.5t-28.5 25.5q-5 -95 -104 -95q-100 0 -105 95q-16 -7 -28.5 -25.5t-12.5 -32.5h-12q0 16 -6.5 31.5t-13.5 23.5l-7 8v16h79q4 97 106 97q100 0 104 -97h80zM-176 705q-1 43 -11.5 59.5t-41.5 16.5t-42.5 -16.5
t-12.5 -59.5h108zM-176 684h-108q0 -43 12 -59t43 -16t42 16t11 59zM-227 889q61 0 116.5 -24.5t95.5 -67.5l-20 -11q-63 70 -192 70q-130 0 -193 -70l-19 11q40 43 95.5 67.5t116.5 24.5z" />
    <glyph glyph-name="uni2DF5" unicode="&#x2df5;" 
d="M-203 779q-84 0 -131 -11t-47 -46q0 -22 15 -41.5t34.5 -35.5t24.5 -25q25 14 31 30l32 -13q-33 -35 -83 -48q-43 16 -74 49t-31 58q0 43 44.5 73.5t102.5 30.5h222v-21q-17 -11 -17 -46h-12q0 31 -11 38.5t-49 7.5v-184h-51v184zM-227 889q61 0 116.5 -24.5t95.5 -67.5
l-20 -11q-63 70 -192 70q-130 0 -193 -70l-19 11q40 43 95.5 67.5t116.5 24.5z" />
    <glyph glyph-name="uni2DF6" unicode="&#x2df6;" 
d="M-184 792l43 -198h-53l-5 24q-28 -28 -79 -28q-28 0 -40 14t-12 32q0 50 101 120l-10 43h42q11 0 13 -7zM-205 645l-20 92q-19 -12 -27.5 -18.5t-19.5 -21.5t-11 -31q0 -41 37 -41q23 0 41 20zM-227 889q61 0 116.5 -24.5t95.5 -67.5l-20 -11q-63 70 -192 70
q-130 0 -193 -70l-19 11q40 43 95.5 67.5t116.5 24.5z" />
    <glyph glyph-name="uni2DF7" unicode="&#x2df7;" 
d="M-227 889q61 0 116.5 -24.5t95.5 -67.5l-20 -11q-63 70 -192 70q-130 0 -193 -70l-19 11q40 43 95.5 67.5t116.5 24.5zM-209 750q-18 16 -23 23q-24 -13 -32 -24.5t-8 -32.5v-3h98v-20h-94q7 -20 34 -43.5t31 -31.5q25 14 31 31l33 -13q-33 -35 -83 -48q-43 16 -74.5 49
t-31.5 58q0 26 29 59.5t84 48.5q23 -8 55 -32z" />
    <glyph glyph-name="uni2DF8" unicode="&#x2df8;" horiz-adv-x="549" 
d="M-227 889q61 0 116.5 -24.5t95.5 -67.5l-20 -11q-63 70 -192 70q-130 0 -193 -70l-19 11q40 43 95.5 67.5t116.5 24.5zM-200 799v-17h52v-16h-52v-31q38 -7 66 -29.5t28 -56.5v-55h-52v45q0 29 -20 46.5t-56 17.5q-25 0 -43 -14t-18 -40v-55h-36v54q0 37 23.5 58.5
t56.5 28.5v31h-49v16h49v17h51z" />
    <glyph glyph-name="uni2DF9" unicode="&#x2df9;" 
d="M-227 930q61 0 116.5 -24.5t95.5 -67.5l-20 -11q-63 70 -192 70q-130 0 -193 -70l-19 11q40 43 95.5 67.5t116.5 24.5zM-268 639q0 -29 38 -29q25 0 25 19q0 17 -37 50q-26 -28 -26 -40zM-213 709q59 -49 59 -78q0 -41 -82 -41q-56 0 -56 45q0 22 35 57q-4 3 -15 12.5
t-15.5 13.5t-13.5 12.5t-13.5 13.5t-9.5 11.5t-7 12.5t-2 11q0 8 14 17q27 16 40 16q8 0 8 -4t-4.5 -7t-10.5 -5l-7 -3q0 -4 1 -7.5t3.5 -7.5t5 -7.5t7 -8t8 -7.5t9.5 -8t9.5 -8.5t10.5 -9t11 -8.5q55 55 55 105q0 7 -5 7t-10.5 -3.5t-11.5 -3.5q-5 0 -5 4q0 9 18 24t35 15
q14 0 14 -14q0 -69 -75 -146z" />
    <glyph glyph-name="uni2DFA" unicode="&#x2dfa;" 
d="M-227 614h83q-20 62 -58 102l-25 -9v-93zM-279 881h52v-77h121v-21q-27 -22 -27 -57h-12q0 34 -37 57h-45v-55l39 15q21 -14 55 -53.5t60 -95.5h-206v189h-53v-68h-51v89h104v77zM-227 930q61 0 116.5 -24.5t95.5 -67.5l-20 -11q-63 70 -192 70q-130 0 -193 -70l-19 11
q40 43 95.5 67.5t116.5 24.5z" />
    <glyph glyph-name="uni2DFB" unicode="&#x2dfb;" 
d="M-352 799h51v-87h29q7 26 34.5 52t75.5 39q43 -16 75 -49.5t32 -58.5t-29.5 -58t-84.5 -49q-43 16 -74 49t-31 58h-27v-101h-51v205zM-150 618q21 12 28 24.5t7 34.5t-11 39.5t-29.5 34t-23.5 23.5q-24 -12 -32 -24t-8 -34t14 -40.5t32 -33.5t23 -24zM-227 889
q61 0 116.5 -24.5t95.5 -67.5l-20 -11q-63 70 -192 70q-130 0 -193 -70l-19 11q40 43 95.5 67.5t116.5 24.5z" />
    <glyph glyph-name="uni2DFC" unicode="&#x2dfc;" horiz-adv-x="38" 
d="M-143 645l-21 92q-18 -11 -27 -18t-19.5 -22t-10.5 -31q0 -41 37 -41q23 0 41 20zM-123 792l43 -198h-52l-5 24q-28 -28 -79 -28q-28 0 -40 14t-12 32q0 49 92 115h-113v-157h-51v205h51v-29h118l-6 29h42q10 0 12 -7zM-227 889q61 0 116.5 -24.5t95.5 -67.5l-20 -11
q-63 70 -192 70q-130 0 -193 -70l-19 11q40 43 95.5 67.5t116.5 24.5z" />
    <glyph glyph-name="uni2DFD" unicode="&#x2dfd;" 
d="M-244 787q-50 -57 -71 -107h152q-32 56 -81 107zM-390 594q28 90 135 205h67q37 -39 68.5 -96t47.5 -109h-57q-6 22 -25 66h-50v-66h-51v66h-68q-8 -29 -11 -66h-56zM-227 889q61 0 116.5 -24.5t95.5 -67.5l-20 -11q-63 70 -192 70q-130 0 -193 -70l-19 11
q40 43 95.5 67.5t116.5 24.5z" />
    <glyph glyph-name="uni2DFE" unicode="&#x2dfe;" 
d="M-255 709l-94 90h239l-94 -90q126 -9 126 -115h-51q0 88 -75 101v-101h-51v101q-75 -13 -75 -101h-51q0 106 126 115zM-214 724l58 56h-116zM-227 889q61 0 116.5 -24.5t95.5 -67.5l-20 -11q-63 70 -192 70q-130 0 -193 -70l-19 11q40 43 95.5 67.5t116.5 24.5z" />
    <glyph glyph-name="uni2DFF" unicode="&#x2dff;" 
d="M-227 909q61 0 116.5 -24.5t95.5 -67.5l-20 -10q-63 70 -192 70q-130 0 -193 -70l-19 10q40 43 95.5 67.5t116.5 24.5zM-152 724l54 56h-97zM-256 693h-92v-99h-51v205h51v-85h155l-73 85h209l-79 -90q126 -9 126 -115h-51q0 88 -75 101v-101h-51v101q-75 -13 -75 -101
h-51q0 73 57 99z" />
    <glyph glyph-name="uniA640" unicode="&#xa640;" horiz-adv-x="565" 
d="M524 717v-25h-1l-311 -667h194q55 0 87.5 -29.5t32.5 -70.5q0 -42 -37 -70t-112 -28l-45 5l4 22q32 0 52.5 23t20.5 49q0 27 -20.5 50.5t-52.5 23.5h-269l322 692h-128q-54 0 -88 -51.5t-34 -105.5h-24q0 38 -13.5 77.5t-27.5 59.5l-13 20v25h463z" />
    <glyph glyph-name="uniA641" unicode="&#xa641;" horiz-adv-x="468" 
d="M210 -168l4 22q44 0 67 22t23 50q0 30 -20.5 52t-69.5 22h-151l227 487h-58q-68 0 -87 -23t-19 -106h-25q0 38 -8 70.5t-16 45.5l-8 13v25h346l-229 -487h98q55 0 87.5 -29.5t32.5 -70.5q0 -42 -37 -70t-112 -28z" />
    <glyph glyph-name="uniA642" unicode="&#xa642;" horiz-adv-x="565" 
d="M524 717v-25h-1l-145 -311h140v-47h-162l-144 -309h194q55 0 87.5 -29.5t32.5 -70.5q0 -42 -37 -70t-112 -28l-45 5l4 22q32 0 52.5 23t20.5 49q0 27 -20.5 50.5t-52.5 23.5h-269l322 692h-128q-54 0 -88 -51.5t-34 -105.5h-24q0 38 -13.5 77.5t-27.5 59.5l-13 20v25h463
z" />
    <glyph glyph-name="uniA643" unicode="&#xa643;" horiz-adv-x="468" 
d="M210 -168l4 22q44 0 67 22t23 50q0 30 -20.5 52t-69.5 22h-151l227 487h-58q-68 0 -87 -23t-19 -106h-25q0 38 -8 70.5t-16 45.5l-8 13v25h346l-123 -262h124v-47h-146l-84 -178h98q55 0 87.5 -29.5t32.5 -70.5q0 -42 -37 -70t-112 -28z" />
    <glyph glyph-name="uniA644" unicode="&#xa644;" horiz-adv-x="646" 
d="M417 33q-33 0 -67 -21.5t-81 -21.5q-107 0 -163.5 50t-56.5 150q0 177 251 177q39 0 65.5 15t38 42t15.5 52.5t4 59.5q0 70 -31 118t-77 48q-57 0 -83 -45t-26 -145q0 -14 -62 -14q-60 0 -60 14q0 40 12.5 77t38 68.5t72 50.5t108.5 19q111 0 170 -55.5t59 -156.5
q0 -39 -8.5 -68t-30.5 -55t-66 -39.5t-108 -13.5q-160 0 -160 -173q0 -73 25.5 -108.5t64.5 -35.5q42 0 79 16t59.5 34.5t50 34.5t51.5 16t54 -29t30 -41q0 -29 -27.5 -53.5t-52.5 -24.5q-15 0 -45.5 29t-42.5 29z" />
    <glyph glyph-name="uniA645" unicode="&#xa645;" horiz-adv-x="570" 
d="M370 39q-27 0 -67 -24.5t-71 -24.5q-83 0 -132 49t-49 126q0 61 49 99.5t157 38.5q47 0 72.5 28t25.5 63q0 51 -23.5 77.5t-62.5 26.5q-45 0 -64 -28.5t-19 -92.5q0 -11 -53 -11q-49 0 -49 11q0 59 45 102t140 43q96 0 142.5 -28t46.5 -99q0 -49 -46.5 -82.5
t-129.5 -33.5q-128 0 -128 -133q0 -57 21.5 -93.5t50.5 -36.5q38 0 110.5 45t100.5 45q19 0 46 -28.5t27 -38.5q0 -22 -22.5 -40t-42.5 -18q-12 0 -39 29t-36 29z" />
    <glyph glyph-name="uniA646" unicode="&#xa646;" horiz-adv-x="305" 
d="M183 717v-611q0 -57 12 -75t59 -18v-23q-116 0 -154.5 33.5t-38.5 136.5v557h122z" />
    <glyph glyph-name="uniA647" unicode="&#xa647;" horiz-adv-x="225" 
d="M61 115v428l103 -31v-453q0 -45 51 -45v-24q-91 0 -122.5 27t-31.5 98z" />
    <glyph glyph-name="uniA648" unicode="&#xa648;" horiz-adv-x="813" 
d="M524 617v-23h-70v-120q112 -21 170 -120.5t58 -264.5q0 -44 11 -54.5t60 -10.5v-24h-264v24q49 0 60 10.5t11 54.5q0 209 -38 287.5t-128 78.5t-128 -78.5t-38 -287.5q0 -44 11 -54.5t60 -10.5v-24h-263v24q48 0 59 10t11 55q0 163 58 262.5t168 121.5v121h-71v23h71v11
q0 44 -11 54.5t-60 10.5v24h263v-24q-48 0 -59 -10t-11 -55v-11h70z" />
    <glyph glyph-name="uniA649" unicode="&#xa649;" horiz-adv-x="549" 
d="M294 512v-69h82v-23h-82v-67q76 -16 131 -72.5t55 -142.5v-138h-102v137q0 71 -41 116.5t-113 45.5q-49 0 -85 -35.5t-36 -98.5v-165h-52v135q0 94 38 148t102 69v68h-78v23h78v69h103z" />
    <glyph glyph-name="uniA64A" unicode="&#xa64a;" horiz-adv-x="633" 
d="M317 273q-41 0 -70.5 -14t-43 -36.5t-19 -42t-5.5 -37.5t5.5 -37.5t19 -41.5t43 -36t70.5 -14t70 14t43 36.5t19.5 42t5.5 37.5q0 37 -22.5 75.5t-76.5 49.5l-24 -142q-3 -18 -8 -26.5t-9 -10t-12 -1.5q-6 0 -11 7t-5 16q0 16 13 47.5t15 44.5l12 69h-10zM361 296
q55 -5 100 -22.5t70 -41t38.5 -46.5t13.5 -43q0 -50 -70 -101.5t-196 -51.5t-196 52t-70 102t70 102t196 52h14l11 66h-111l-121 327q-10 26 13 26h55q18 0 25 -4.5t12 -19.5l110 -298h22l50 299q1 8 9 12.5t36.5 7.5t83.5 3q15 0 15 -12q0 -19 -6.5 -64.5t-14.5 -45.5h-64
q-32 0 -38.5 -4t-8.5 -24z" />
    <glyph glyph-name="uniA64B" unicode="&#xa64b;" horiz-adv-x="455" 
d="M111 536q0 -21 41.5 -88.5t95.5 -128.5q102 142 102 299q0 5 -4 11t-7 6q-11 0 -20.5 -7.5t-21.5 -7.5q-10 0 -10 10q0 23 36.5 60t70.5 37q26 0 26 -36q0 -77 -39 -174.5t-77 -156.5l-39 -59q4 -4 19.5 -20t19.5 -21l18 -20q14 -15 19 -22l15 -21q10 -14 14 -24.5
t9.5 -24.5t7.5 -27.5t2 -28.5q0 -102 -164 -102q-59 0 -85.5 32t-26.5 80q0 27 12 54t24.5 43t41.5 50q-7 8 -24.5 29.5t-25.5 31.5t-23.5 29.5t-23.5 30.5t-20 28t-18 29l-13 26q-7 14 -9.5 26t-2.5 23q0 13 4 21t21 20q14 11 45 26t37 15q16 0 16 -11t-9 -18.5t-21 -12.5
t-13 -6zM207 230q-67 -81 -67 -117q0 -55 25.5 -77t70.5 -22q51 0 51 73q0 43 -80 143z" />
    <glyph glyph-name="uniA64C" unicode="&#xa64c;" horiz-adv-x="1044" 
d="M582 269q0 -255 131 -255q42 0 70 23t42 71.5t19.5 106t5.5 143.5q0 345 -117 345q-34 0 -57 -10q27 -24 27 -58q0 -32 -22 -54t-53 -22q-32 0 -54 22.5t-22 53.5q0 93 183 93q111 0 177 -103t66 -266q0 -170 -64.5 -269.5t-198.5 -99.5q-131 0 -194 105
q-63 -105 -193 -105q-134 0 -198.5 99.5t-64.5 269.5q0 163 65.5 266t176.5 103q183 0 183 -93q0 -32 -22 -54t-53 -22t-53.5 22.5t-22.5 53.5q0 33 28 58q-23 10 -58 10q-116 0 -116 -345q0 -86 5.5 -143.5t19.5 -106t42 -71.5t70 -23q131 0 131 255q0 45 -11 55.5
t-60 10.5v23h262v-23q-48 0 -59 -10.5t-11 -55.5z" />
    <glyph glyph-name="uniA64D" unicode="&#xa64d;" horiz-adv-x="887" 
d="M492 342q0 -120 41 -203.5t112 -83.5q68 0 98.5 67t30.5 175q0 46 -17 83t-33.5 68t-16.5 64h100q24 -41 24 -96q0 -119 -17.5 -205t-48.5 -132.5t-66 -67.5t-76 -21q-48 0 -96.5 31t-82.5 89h-1q-56 -120 -158 -120q-40 0 -80.5 22t-75.5 63.5t-56.5 110.5t-21.5 154
q0 33 5.5 63t13.5 49t16 34q8 14 14 20l6 6h99q-6 -8 -14.5 -22.5t-22.5 -59t-14 -88.5q0 -120 41 -203.5t112 -83.5t100 67.5t29 219.5h56z" />
    <glyph glyph-name="uniA64E" unicode="&#xa64e;" horiz-adv-x="818" 
d="M196 727q114 0 160 -50t46 -165v-37q47 -56 117 -77t181 -21v-289q0 -44 11 -54t60 -10v-24h-561v24q49 0 60 10t11 54v447q0 168 -86 168q-83 0 -83 -191q0 -14 -62 -14q-60 0 -60 14q0 215 206 215zM579 353q-113 14 -177 71v-336q0 -44 11 -54t60 -10h35q49 0 60 10
t11 54v265z" />
    <glyph glyph-name="uniA64F" unicode="&#xa64f;" horiz-adv-x="699" 
d="M196 522q84 0 120.5 -33t36.5 -108v-53l78 45q43 -35 111 -135t121 -238h-412v373q0 125 -55 125q-45 0 -64 -28.5t-19 -92.5q0 -11 -54 -11q-49 0 -49 11q0 59 45.5 102t140.5 43zM353 25h174q-25 96 -63 176t-70 122l-41 -23v-275z" />
    <glyph glyph-name="uniA650" unicode="&#xa650;" horiz-adv-x="1128" 
d="M996 88q0 -44 11 -54t60 -10v-24h-264v24q49 0 60 10t11 54v540q0 44 -11 54.5t-60 10.5v24h264v-24q-49 0 -60 -10.5t-11 -54.5v-540zM444 717v-25q-48 0 -59 -10t-11 -55v-152q47 -56 117 -77t181 -21v-289q0 -44 10.5 -54t59.5 -10v-24h-561v24q49 0 60 10t11 54v539
q0 44 -11 54.5t-60 10.5q-36 0 -68.5 -54t-32.5 -103h-25q0 38 -13.5 77.5t-26.5 59.5l-13 20v25h442zM444 24h35q49 0 60 10t11 54v265q-112 14 -176 71v-336q0 -44 10.5 -54t59.5 -10z" />
    <glyph glyph-name="uniA651" unicode="&#xa651;" horiz-adv-x="836" 
d="M672 512h103v-512h-103v512zM206 487h-19q-68 0 -87 -23t-19 -106h-25q0 38 -8 70.5t-16 45.5l-8 13v25h284v-184l78 45q43 -35 110.5 -135t120.5 -238h-411v487zM308 25h174q-25 96 -63 176t-70 122l-41 -23v-275z" />
    <glyph glyph-name="uniA652" unicode="&#xa652;" horiz-adv-x="1019" 
d="M766 302q-112 14 -176 71v-285q0 -44 10.5 -54t59.5 -10h35q49 0 60 10t11 54v214zM254 88q0 -44 11 -54t60 -10v-24h-264v24q49 0 60 10t11 54v540q0 44 -11 54.5t-60 10.5v24h264v-24q-49 0 -60 -10.5t-11 -54.5v-24h214v24q0 44 -11 54.5t-60 10.5v24h263v-24
q-48 0 -59 -10t-11 -55v-24h227v-24q-6 -8 -15 -22.5t-23.5 -56t-14.5 -79.5h-25q0 50 -25 104t-54 54h-70v-156q47 -56 117 -77t181 -21v-238q0 -44 10.5 -54t59.5 -10v-24h-561v24q49 0 60 10t11 54v492h-214v-492z" />
    <glyph glyph-name="uniA653" unicode="&#xa653;" horiz-adv-x="726" 
d="M373 25h174q-25 96 -63 176t-70 122l-41 -23v-275zM270 717h103v-205h241v-25q-6 -8 -15 -22t-23.5 -55.5t-14.5 -79.5h-24q0 39 -20.5 84t-54.5 73h-89v-159l78 45q43 -35 110.5 -135t120.5 -238h-412v487h-106v-487h-103v512h209v205z" />
    <glyph glyph-name="uniA654" unicode="&#xa654;" horiz-adv-x="960" 
d="M707 630q0 44 -11 54t-60 10v24h263v-24q-49 0 -60 -10t-11 -54v-540q0 -44 11 -54.5t60 -10.5v-24h-263v24q49 0 60 10.5t11 54.5v257h-124q-2 -164 -68.5 -260.5t-198.5 -96.5q-134 0 -199.5 100t-65.5 269t65.5 269t199.5 100q132 0 198.5 -96.5t68.5 -259.5h124v258z
M316 14q43 0 71 23.5t42.5 72t20 106.5t5.5 143t-5.5 143.5t-20 106.5t-42.5 71t-71 23q-42 0 -70 -23.5t-42 -72t-19.5 -106.5t-5.5 -143q0 -86 5.5 -143.5t19.5 -106t42 -71.5t70 -23z" />
    <glyph glyph-name="uniA655" unicode="&#xa655;" horiz-adv-x="716" 
d="M315 49q43 32 57 63t14 84q0 43 -18.5 85.5t-41.5 70.5t-51 61t-38 50q-47 -31 -63 -62t-16 -84q0 -44 21 -87.5t46.5 -71t53 -59t36.5 -50.5zM553 512h102v-512h-102v261h-59v-7q0 -38 -21.5 -86.5t-76 -102t-129.5 -79.5q-87 38 -149.5 121.5t-62.5 146.5
q0 38 21.5 86.5t76 102t129.5 79.5q76 -34 134.5 -103.5t72.5 -132.5h64v226z" />
    <glyph glyph-name="uniA656" unicode="&#xa656;" horiz-adv-x="956" 
d="M254 88q0 -44 11 -54t60 -10v-24h-264v24q49 0 60 10t11 54v540q0 44 -11 54.5t-60 10.5v24h264v-24q-39 0 -52 -5t-17 -24h444q-4 19 -17 24t-51 5v24h263v-24q-49 0 -60 -10.5t-11 -54.5v-540q0 -44 11 -54t60 -10v-24h-263v24q49 0 59.5 10t10.5 54v289
q-79 -115 -180 -115q39 -26 39 -73q0 -56 -52 -79v-8q0 -44 19 -61t64 -17v-24h-236v24q45 0 63.5 17t18.5 61v7q-24 10 -39 31.5t-15 48.5q0 29 17.5 52.5t44.5 31.5q-64 22 -64 97q0 141 266 269h-394v-11v-540zM702 424v204v4q-31 -12 -60 -28.5t-64 -43t-56.5 -63.5
t-21.5 -79q0 -94 80 -94q51 0 122 100z" />
    <glyph glyph-name="uniA657" unicode="&#xa657;" horiz-adv-x="653" 
d="M511 495l87 -495h-104l-12 62q-60 -72 -156 -72q-57 0 -81.5 35t-24.5 79q0 130 202 299h-241v-403h-102v512h102v-84h237l-15 84h84q21 0 24 -17zM475 106l-48 270q-111 -93 -111 -197q0 -39 20 -75.5t61 -36.5q50 0 78 39z" />
    <glyph glyph-name="uniA658" unicode="&#xa658;" horiz-adv-x="927" 
d="M433 665q-130 -167 -174 -294h362q-65 137 -188 294zM895 0h-867v24q49 0 59.5 10t10.5 54q0 115 91 286t221 318h-64v25h243v-25h-33q97 -109 169.5 -271t97.5 -302q1 -6 3.5 -23t4 -21.5t4.5 -16.5t7.5 -15.5t11.5 -9.5t17 -7.5t24 -1.5v-24zM632 24q41 0 58 10.5
t17 37.5t-21 111t-55 163h-380q-31 -103 -31 -258q0 -44 11 -54t60 -10h341z" />
    <glyph glyph-name="uniA659" unicode="&#xa659;" horiz-adv-x="717" 
d="M510 166h-338q-14 -60 -21 -141h402q-12 55 -43 141zM330 484q-111 -160 -151 -294h323q-60 150 -172 294zM674 0h-637q28 111 102.5 249.5t167.5 262.5h133q74 -98 138 -240t96 -272z" />
    <glyph glyph-name="uniA65A" unicode="&#xa65a;" horiz-adv-x="1035" 
d="M574 400l205 292h-408zM271 197q-17 -51 -17 -108q0 -44 11 -54.5t60 -10.5v-24h-264v24q10 0 17.5 0.5t14 0.5t10.5 2.5t7.5 2.5t6 5t4 6t3.5 8.5t2.5 10t2.5 13.5t3 16q9 46 21 82.5t36 75.5t57 64.5t85 42.5t118 17l-243 346h620l-242 -346h1q67 0 119 -17t85 -42.5
t57 -64.5t36 -75.5t21 -82.5t14 -53q10 -12 57 -12v-24h-263v24q48 0 59 10t11 55q0 57 -17 108h-185v-109q0 -44 10.5 -54t59.5 -10v-24h-263v24q49 0 60 10t11 54v109h-186zM755 221q-53 125 -176 125h-122q-123 0 -176 -125h474z" />
    <glyph glyph-name="uniA65B" unicode="&#xa65b;" horiz-adv-x="739" 
d="M412 313l145 174h-292zM422 130v-130h-103v130h-134q-15 -57 -15 -130h-102q0 80 21.5 137.5t60 87.5t79 43.5t90.5 17.5v2l-188 224h479l-188 -224v-2q252 -19 252 -286h-103q0 73 -15 130h-134zM548 155q-43 113 -177 113t-177 -113h354z" />
    <glyph glyph-name="uniA65C" unicode="&#xa65c;" horiz-adv-x="1259" 
d="M964 24q41 0 57.5 10.5t16.5 37.5q0 28 -20.5 111.5t-54.5 162.5h-380q-31 -103 -31 -258q0 -44 11 -54t60 -10h341zM1227 0h-868v24q49 0 60 10t11 54q0 101 77 258h-253v-258q0 -44 11 -54t60 -10v-24h-264v24q49 0 60 10t11 54v540q0 44 -11 54.5t-60 10.5v24h264v-24
q-49 0 -60 -10.5t-11 -54.5v-257h265q86 167 222 321h-63v25h243v-25h-33q97 -109 169.5 -271t97.5 -302q1 -6 3.5 -23t4 -21.5t4.5 -16.5t7.5 -15.5t11.5 -9.5t17 -7.5t24 -1.5v-24zM765 665q-130 -167 -174 -294h361q-66 141 -187 294z" />
    <glyph glyph-name="uniA65D" unicode="&#xa65d;" horiz-adv-x="909" 
d="M865 0h-637q25 106 109 261h-156v-261h-102v512h102v-226h170q64 112 148 226h133q74 -98 137.5 -240t95.5 -272zM521 484q-109 -157 -150 -294h322q-60 150 -172 294zM701 166h-337q-16 -67 -22 -141h402q-12 55 -43 141z" />
    <glyph glyph-name="uniA65E" unicode="&#xa65e;" horiz-adv-x="834" 
d="M311 498l-148 -489q-3 -12 -27 -17t-89 -5q-14 0 -14 12q0 20 6 65t14 45h42q40 0 51 4t17 23l181 581h127l217 -628q14 -41 34.5 -53t71.5 -12v-24h-264v24q53 0 53 19q0 9 -3 17l-147 444v-621q0 -44 11 -54t60 -10v-24h-263v24q49 0 59.5 10t10.5 54v615z" />
    <glyph glyph-name="uniA65F" unicode="&#xa65f;" horiz-adv-x="668" 
d="M286 375l-145 -361q-4 -12 -21.5 -17t-70.5 -5q-14 0 -14 12q0 20 6 65.5t14 45.5h56q20 0 29.5 5.5t15.5 20.5l147 372h119l202 -487q4 -12 4 -15q0 -11 -18 -11h-48q-18 0 -25 5t-12 19l-137 336v-565h-102v580z" />
    <glyph glyph-name="uniA660" unicode="&#xa660;" horiz-adv-x="779" 
d="M65 25l88 -1q48 0 59 10t11 55v540q0 44 -10.5 54t-59.5 10v24h263v-24q-49 0 -60 -10t-11 -54v-540q0 -44 11 -54.5t60 -10.5h61q49 0 60 10.5t11 54.5v540q0 44 -11 54t-60 10v24h263v-24q-49 0 -59.5 -10t-10.5 -54v-540q0 -45 11 -55t59 -10v-24h-523
q-34 -28 -54.5 -73.5t-20.5 -84.5h-24q0 38 -14.5 79.5t-23.5 56t-15 22.5v25z" />
    <glyph glyph-name="uniA661" unicode="&#xa661;" horiz-adv-x="645" 
d="M336 512v-487h174v487h102v-512h-379q-34 -28 -54.5 -73.5t-20.5 -84.5h-24q0 38 -14.5 79.5t-23.5 56t-15 22.5v25h152v487h103z" />
    <glyph glyph-name="uniA662" unicode="&#xa662;" horiz-adv-x="755" 
d="M482 693q-65 0 -65 -21q0 -10 2 -18l153 -629h109v-25q-21 -28 -37 -74t-16 -84h-25q0 39 -20.5 84.5t-54.5 73.5h-354q-34 -28 -54.5 -73.5t-20.5 -84.5h-24q0 38 -13 78q-14 40 -27 60l-13 20v25h113l151 616q3 12 3 26q0 26 -70 26v24h503v-25q-21 -29 -37 -74
t-16 -83h-25q0 54 -34 106t-87 52h-41zM164 25h282l-142 586z" />
    <glyph glyph-name="uniA663" unicode="&#xa663;" horiz-adv-x="665" 
d="M180 25h236l-118 439zM472 0h-278q-34 -28 -54.5 -73.5t-20.5 -84.5h-25q0 38 -13 78t-27 60l-13 20v25h115l131 487h361v-25q-33 -43 -33 -129h-24q0 83 -19.5 106t-87.5 23h-86l124 -462h103v-25q-21 -27 -37.5 -73.5t-16.5 -84.5h-24q0 39 -20.5 84.5t-54.5 73.5z" />
    <glyph glyph-name="uniA664" unicode="&#xa664;" horiz-adv-x="832" 
d="M579 88q6 -45 16 -54.5t58 -9.5v-24h-263v24q42 0 55.5 6t13.5 26.5t-2 31.5l-62 467q-44 -46 -77 -122q-64 -144 -64 -345q0 -44 11 -54t60 -10v-24h-264v24q49 0 60 10t11 75.5t6 113.5t34.5 107t76.5 115t141 150l-4 33q-6 45 -16.5 55t-58.5 10v24h488v-25
q-21 -29 -37 -74t-16 -83h-25q0 54 -34 106t-87 52h-26q-43 0 -55 -7t-12 -28t1 -30z" />
    <glyph glyph-name="uniA665" unicode="&#xa665;" horiz-adv-x="616" 
d="M256 512h343v-25q-33 -43 -33 -129h-24q0 83 -19.5 106t-87.5 23h-70l86 -487h-105l-66 379q-123 -153 -123 -344q0 -24 1 -35h-109q4 121 44.5 200t178.5 221z" />
    <glyph glyph-name="uniA666" unicode="&#xa666;" horiz-adv-x="1150" 
d="M552 88q6 -45 16.5 -54.5t58.5 -9.5v-24h-263v24q41 0 54.5 6t13.5 26.5t-2 31.5l-61 467q-43 -45 -78 -122q-64 -143 -64 -345q0 -44 11 -54t60 -10v-24h-263v24q49 0 59.5 10t10.5 54q0 114 16 176.5t68 134.5t175 196l-5 33q-6 46 -16.5 55.5t-57.5 9.5v24h263v-24
q-43 0 -55.5 -7t-12.5 -28t1 -30l34 -259q56 116 179 214l-6 45q-6 45 -16.5 55t-58.5 10v24h504v-25q-21 -29 -37 -74t-16 -83h-25q0 54 -34 106t-87 52h-41q-43 0 -55.5 -7t-12.5 -28t1 -30l71 -540q6 -45 16 -54.5t58 -9.5v-24h-263v24q42 0 55.5 6t13.5 26.5t-2 31.5
l-60 454q-125 -110 -169 -291z" />
    <glyph glyph-name="uniA667" unicode="&#xa667;" horiz-adv-x="824" 
d="M591 487l85 -487h-104l-68 391q-11 -18 -38 -54q-58 -79 -74 -137l34 -200h-104l-66 373q-100 -144 -100 -333q0 -24 4 -40h-108q2 70 7 107t24 88t58 102.5t107 123.5l-16 91h84q22 0 24 -17l36 -211q6 7 26 28.5t29 32.5t23 29q30 36 42 63l-14 75h325v-25
q-33 -43 -33 -129h-24q0 83 -19.5 106t-87.5 23h-52z" />
    <glyph glyph-name="uniA66F" unicode="&#xa66f;" 
d="M-23 706v-45h-61v50h-272v-50h-61v45q0 14 8.5 23t21.5 9h334q13 0 21.5 -9t8.5 -23z" />
    <glyph glyph-name="uniA673" unicode="&#xa673;" horiz-adv-x="396" 
d="M246 633h97l-48 -83l48 -84h-97l-48 -84l-48 84h-97l48 84l-48 83h97l48 84zM255 550l28 49h-57l-28 49l-28 -49h-57l28 -49l-28 -50h57l28 -48l28 48h57z" />
    <glyph glyph-name="uniA674" unicode="&#xa674;" 
d="M-209 750q-17 16 -24 23q-26 -16 -29 -22q-10 -13 -10 -27v-16h99v-10h-97q9 -28 49 -61q13 -11 18 -19q25 15 31 31l34 -13q-32 -33 -84 -48q-44 15 -75 48.5t-31 54.5q0 39 47 80q23 20 66 32q27 -10 56 -32zM-227 889q61 0 116.5 -24.5t95.5 -67.5l-20 -11
q-63 70 -192.5 70t-192.5 -70l-19 11q40 43 95.5 67.5t116.5 24.5z" />
    <glyph glyph-name="uniA675" unicode="&#xa675;" 
d="M-172 594v123l-87 -48v-75h-51v205h51v-107l87 49v58h51v-205h-51zM-227 889q61 0 116.5 -24.5t95.5 -67.5l-20 -11q-63 70 -192 70q-130 0 -193 -70l-19 11q40 43 95.5 67.5t116.5 24.5z" />
    <glyph glyph-name="uniA676" unicode="&#xa676;" 
d="M-208 774q-4 0 -4 4v44q0 4 4 4h31q5 0 5 -4v-44q0 -4 -5 -4h-31zM-282 774q-2 0 -4 1t-2 3v44q0 2 2 3t4 1h30q5 0 5 -4v-44q0 -4 -5 -4h-30zM-255 755h51v-161h-51v161zM-227 889q61 0 116.5 -24.5t95.5 -67.5l-20 -11q-63 70 -192.5 70t-192.5 -70l-19 11
q40 43 95.5 67.5t116.5 24.5z" />
    <glyph glyph-name="uniA677" unicode="&#xa677;" 
d="M-172 506q0 -10 -10 -10q-18 0 -18 82v16h-53l-91 195q-2 4 -2 7t8 3h28q14 0 18 -9l86 -183h6q3 72 14.5 120t23.5 63q6 9 48 9q6 0 7 -5q0 -8 -3 -26t-7 -18h-15q-15 0 -21.5 -2.5t-11 -10t-9.5 -23.5q-14 -44 -14 -106.5t8 -79.5t8 -22zM-227 889q61 0 116.5 -24.5
t95.5 -67.5l-20 -11q-63 70 -192.5 70t-192.5 -70l-19 11q40 43 95.5 67.5t116.5 24.5z" />
    <glyph glyph-name="uniA678" unicode="&#xa678;" 
d="M-185 614h82q-1 45 -17.5 60.5t-64.5 19.5v-80zM-185 799v-83q79 -1 106 -26t27 -96h-184v184h-8q-35 0 -44 -7t-9 -39h-12q0 35 -17 46v21h141zM-227 889q61 0 116.5 -24.5t95.5 -67.5l-20 -11q-63 70 -192.5 70t-192.5 -70l-19 11q40 43 95.5 67.5t116.5 24.5z" />
    <glyph glyph-name="uniA679" unicode="&#xa679;" 
d="M-151 799h51v-205h-51v205zM-227 889q61 0 116.5 -24.5t95.5 -67.5l-20 -11q-63 70 -192 70q-130 0 -193 -70l-19 11q40 43 95.5 67.5t116.5 24.5zM-307 799v-83q79 -1 106 -26t27 -96h-184v205h51zM-307 614h82q-1 45 -17.5 60.5t-64.5 19.5v-80z" />
    <glyph glyph-name="uniA67A" unicode="&#xa67a;" 
d="M-227 889q61 0 116.5 -24.5t95.5 -67.5l-20 -11q-63 70 -192 70q-130 0 -193 -70l-19 11q40 43 95.5 67.5t116.5 24.5zM-256 799v-83q79 -1 106 -26t27 -96h-184v205h51zM-256 614h82q-1 45 -17.5 60.5t-64.5 19.5v-80z" />
    <glyph glyph-name="uniA67B" unicode="&#xa67b;" 
d="M-78 799q13 -26 13 -38q0 -69 -24.5 -107t-69.5 -64q-43 19 -72 53q-23 -34 -61 -53q-43 18 -74.5 55t-31.5 83.5t28 70.5h49q-25 -27 -25 -66t19.5 -69.5t46.5 -47.5q22 15 38 41q-24 35 -24 74.5t28 67.5h49q-25 -27 -25 -66t19.5 -69.5t46.5 -47.5q54 39 54 97
q0 27 -25 61q-9 12 -9 25h50zM-227 889q61 0 116.5 -24.5t95.5 -67.5l-20 -11q-63 70 -192.5 70t-192.5 -70l-19 11q40 43 95.5 67.5t116.5 24.5z" />
    <glyph glyph-name="uniA67C" unicode="&#xa67c;" 
d="M-227 595q-46 0 -87.5 24.5t-71.5 67.5l15 11q47 -70 144 -70t145 70l14 -11q-30 -43 -71.5 -67.5t-87.5 -24.5z" />
    <glyph glyph-name="uniA67D" unicode="&#xa67d;" 
d="M-306 733l-5 -42v-8q0 -41 49 -41q24 0 40 12l17 79h61l-34 -163h-61l13 68q-20 -6 -56 -6t-62.5 20.5t-26.5 47.5v4l4 29h61z" />
    <glyph glyph-name="afii10070_acute" unicode="&#xe59c;" horiz-adv-x="435" 
d="M326 815l64 -71l-231 -160l-25 27zM346 487l-170 -79v-115l108 50l41 -59l-149 -70v-122q0 -32 22 -32q7 0 10 2l101 49l65 -50l-140 -65q-24 -11 -50 -11q-45 0 -77.5 30t-32.5 84v296q0 45 38 61l146 68z" />
    <glyph glyph-name="afii10026_acute" unicode="&#xe59d;" horiz-adv-x="710" 
d="M526 984l64 -71l-231 -160l-25 27zM579 88q0 -44 10.5 -54t59.5 -10v-24h-263v24q49 0 60 10t11 54v368l-203 -243v-125q0 -44 11 -54t60 -10v-24h-264v24q49 0 60 10t11 54v540q0 44 -11 54.5t-60 10.5v24h264v-24q-49 0 -60 -10.5t-11 -54.5v-364l203 241v123
q0 44 -11 54.5t-60 10.5v24h263v-24q-48 0 -59 -10t-11 -55v-540z" />
    <glyph glyph-name="afii10074_acute" unicode="&#xe59e;" horiz-adv-x="501" 
d="M414 815l64 -71l-231 -160l-25 27zM338 512h102v-512h-102v338l-174 -208v-130h-103v512h103v-331l174 207v124z" />
    <glyph glyph-name="afii10045_acute" unicode="&#xe59f;" horiz-adv-x="1008" 
d="M661 984l64 -71l-231 -160l-25 27zM877 88q0 -44 11 -54t60 -10v-24h-264v24q49 0 60 10t11 54v540q0 44 -11 54.5t-60 10.5v24h264v-24q-49 0 -60 -10.5t-11 -54.5v-540zM254 475q47 -56 117 -77t181 -21v-289q0 -44 11 -54t60 -10v-24h-562v24q49 0 60 10t11 54v540
q0 44 -11 54.5t-60 10.5v24h264v-24q-49 0 -60 -10.5t-11 -54.5v-153zM430 353q-112 14 -176 71v-336q0 -44 11 -54t60 -10h34q49 0 60 10t11 54v265z" />
    <glyph glyph-name="afii10093_acute" unicode="&#xe5a0;" horiz-adv-x="724" 
d="M566 815l64 -71l-231 -160l-25 27zM545 512h103v-512h-103v512zM78 512h103v-184l78 45q43 -35 110.5 -135t120.5 -238h-412v512zM181 25h174q-25 96 -63 176t-70 122l-41 -23v-275z" />
    <glyph glyph-name="afii10048_acute" unicode="&#xe5a1;" horiz-adv-x="960" 
d="M589 984l64 -71l-231 -160l-25 27zM254 88q0 -44 11 -54t60 -10v-24h-264v24q49 0 60 10t11 54v540q0 44 -11 54.5t-60 10.5v24h264v-24q-49 0 -60 -10.5t-11 -54.5v-257h124q2 164 68 260.5t198 96.5q134 0 199.5 -100t65.5 -270q0 -169 -65.5 -268.5t-199.5 -99.5
q-132 0 -198 96.5t-68 259.5h-124v-258zM644 703q-43 0 -71 -23.5t-42 -72t-19.5 -106.5t-5.5 -143q0 -68 3 -117t12 -94t24 -73t40 -44t59 -16q42 0 70 23.5t42 72t19.5 106.5t5.5 143q0 86 -5.5 143.5t-19.5 106t-42 71.5t-70 23z" />
    <glyph glyph-name="afii10096_acute" unicode="&#xe5a2;" horiz-adv-x="731" 
d="M479 815l64 -71l-231 -160l-25 27zM79 512h102v-226h57q9 41 33 83t74 86t115 67q87 -38 149.5 -121.5t62.5 -146.5q0 -38 -21.5 -86.5t-76 -102t-129.5 -79.5q-87 38 -149.5 121.5t-62.5 146.5v7h-52v-261h-102v512zM494 49q43 32 56.5 62.5t13.5 84.5q0 43 -18.5 85.5
t-41.5 70.5t-51 61t-38 50q-47 -31 -63 -62t-16 -84q0 -44 21 -87.5t47 -71t53.5 -59t36.5 -50.5z" />
    <glyph glyph-name="afii10056_acute" unicode="&#xe5a3;" horiz-adv-x="386" 
d="M389 1166l64 -71l-231 -160l-25 27zM235 778q-10 0 -10 10v111q0 10 10 10h61q10 0 10 -10v-111q0 -10 -10 -10h-61zM86 778q-4 0 -7.5 3t-3.5 7v111q0 4 3.5 7t7.5 3h60q10 0 10 -10v-111q0 -10 -10 -10h-60zM254 88q0 -44 11 -54t60 -10v-24h-264v24q49 0 60 10t11 54
v540q0 44 -11 54.5t-60 10.5v24h264v-24q-49 0 -60 -10.5t-11 -54.5v-540z" />
    <glyph glyph-name="afii10104_acute" unicode="&#xe5a4;" horiz-adv-x="281" 
d="M323 949l64 -71l-231 -160l-25 27zM190 559q-10 0 -10 10v111q0 10 10 10h61q10 0 10 -10v-111q0 -10 -10 -10h-61zM41 559q-4 0 -7.5 3t-3.5 7v111q0 4 3.5 7t7.5 3h60q10 0 10 -10v-111q0 -10 -10 -10h-60zM95 512h103v-512h-103v512z" />
    <glyph glyph-name="uni0460_acute" unicode="&#xe5a5;" horiz-adv-x="1005" 
d="M671 984l64 -71l-231 -160l-25 27zM420 628q0 44 -11 54.5t-60 10.5v24h263v-24q-48 0 -59 -10t-11 -55v-149q0 -145 45 -251t94 -156q51 67 92.5 167.5t41.5 223.5v151q0 44 -19 61.5t-64 17.5v24h213v-24q-45 0 -63.5 -17.5t-18.5 -61.5v-79q0 -97 -22.5 -189
t-54.5 -154.5t-64 -111t-54 -71.5l-23 -23q-4 3 -11.5 8.5t-29 26.5t-41.5 44.5t-45 62.5t-44 82q-18 -43 -40.5 -82t-41 -64t-35 -43.5t-25.5 -26.5l-9 -8q-9 6 -24.5 19t-54.5 58t-68.5 97t-54 137.5t-24.5 178.5v152q0 45 -11 55t-59 10v24h263v-24q-49 0 -60 -10.5
t-11 -54.5v-149q0 -145 45 -251t94 -156q63 83 99 183q-37 104 -37 221v152z" />
    <glyph glyph-name="uni0461_acute" unicode="&#xe5a6;" horiz-adv-x="787" 
d="M620 815l64 -71l-231 -160l-25 27zM537 -10q-9 5 -24.5 14.5t-53.5 43t-66 73.5q-24 -43 -54 -76q-31 -33 -49 -44l-18 -11q-9 5 -23 14t-51 41t-65 69t-51 98t-23 128q0 53 14 96q14 44 28 60l14 16h98q-6 -8 -14.5 -22.5t-22.5 -59t-14 -88.5q0 -100 42 -174t91 -113
q47 42 77 102q-48 86 -48 183q0 53 14 96q14 44 28 60l13 16h98q-6 -8 -14.5 -22.5t-22.5 -59t-14 -88.5q0 -100 42 -174t91 -113q109 97 109 242q0 46 -17 83t-34 68t-17 64h100q2 -8 13.5 -36t11.5 -60q0 -92 -19.5 -170t-47 -123t-55 -77t-47.5 -44z" />
    <glyph glyph-name="afii10146_acute" unicode="&#xe5a7;" horiz-adv-x="809" 
d="M526 984l64 -71l-231 -160l-25 27zM187 580q-29 0 -53.5 -54t-24.5 -104h-25q0 38 -13 78t-27 60l-13 20v24h227v24q0 44 -11 54.5t-60 10.5v24h264v-24q-49 0 -60 -10.5t-11 -54.5v-24h227v-24q-6 -8 -15 -22.5t-23.5 -56t-14.5 -79.5h-25q0 50 -24.5 104t-53.5 54h-71
v-156q47 -56 117 -77t181 -21v-238q0 -44 11 -54t60 -10v-24h-562v24q49 0 60 10t11 54v492h-71zM556 302q-112 14 -176 71v-285q0 -44 11 -54t60 -10h34q49 0 60 10t11 54v214z" />
    <glyph glyph-name="afii10194_acute" unicode="&#xe5a8;" horiz-adv-x="720" 
d="M616 815l64 -71l-231 -160l-25 27zM368 25h174q-25 96 -63 176t-70 122l-41 -23v-275zM265 717h103v-205h241v-25q-6 -8 -15 -22t-23.5 -55.5t-14.5 -79.5h-25q0 39 -20 84t-54 73h-89v-159l77 45q43 -35 111 -135t121 -238h-412v487h-106v-184h-103v209h209v205z" />
    <glyph glyph-name="uni0464_acute" unicode="&#xe5a9;" horiz-adv-x="1017" 
d="M598 984l64 -71l-231 -160l-25 27zM887 127q-16 -30 -24.5 -44t-28 -36t-41 -32t-58 -18t-84.5 -8q-132 0 -201.5 97t-71.5 260h-124v-258q0 -44 11 -54t60 -10v-24h-264v24q49 0 60 10t11 54v540q0 44 -11 54.5t-60 10.5v24h264v-24q-49 0 -60 -10.5t-11 -54.5v-257h124
q2 162 71.5 259t201.5 97q48 0 84.5 -8t59 -18.5t41.5 -31.5t28.5 -36.5t23.5 -44.5q22 -44 79 -44v-24h-264v24q50 0 65.5 11t15.5 33q0 42 -33.5 78t-97.5 36q-74 0 -107.5 -72t-38.5 -209q59 48 137 48q105 0 151 -19.5t72 -73.5q7 -16 10.5 -21.5t13.5 -19.5t25 -20
t35 -6v-23h-263v23q38 0 57.5 7t23.5 15.5t4 24.5q0 28 -29 57t-98 29q-78 0 -140 -60v-25q0 -170 32.5 -257t114.5 -87q64 0 97.5 36t33.5 78q0 23 -15.5 34t-65.5 11v24h264v-24q-57 0 -80 -45z" />
    <glyph glyph-name="uni0465_acute" unicode="&#xe5aa;" horiz-adv-x="683" 
d="M479 815l64 -71l-231 -160l-25 27zM489 391q-47 55 -56 72q-47 -31 -63 -62t-16 -84q0 -16 3 -31h205v-25h-200q13 -42 44.5 -83t64 -75t41.5 -54q49 37 62 78l57 -21q-63 -83 -167 -120q-87 38 -149.5 121.5t-62.5 146.5v7h-71v-261h-102v512h102v-226h75q9 41 33 83
t74 86t115 67q58 -25 112 -79z" />
    <glyph glyph-name="uni0466_acute" unicode="&#xe5ab;" horiz-adv-x="927" 
d="M659 984l64 -71l-231 -160l-25 27zM433 665q-130 -167 -174 -294h362q-65 137 -188 294zM707 72q0 27 -21 111t-55 163h-109v-258q0 -44 11 -54t60 -10v-24h-263v24q49 0 59.5 10t10.5 54v258h-149q-31 -103 -31 -258q0 -44 11 -54t60 -10v-24h-263v24q49 0 59.5 10
t10.5 54q0 115 91 286t221 318h-64v25h243v-25h-33q97 -109 169.5 -271t97.5 -302q1 -6 3.5 -23t4 -21.5t4.5 -16.5t7.5 -15.5t11.5 -9.5t17 -7.5t24 -1.5v-24h-263v24q41 0 58 10.5t17 37.5z" />
    <glyph glyph-name="uni0467_acute" unicode="&#xe5ac;" horiz-adv-x="717" 
d="M557 815l64 -71l-231 -160l-25 27zM330 484q-111 -160 -151 -294h323q-60 150 -172 294zM37 0q28 111 102.5 249.5t167.5 262.5h133q74 -98 138 -240t96 -272h-116q-14 70 -48 166h-100v-166h-103v166h-135q-20 -80 -24 -166h-111z" />
    <glyph glyph-name="uni0468_acute" unicode="&#xe5ad;" horiz-adv-x="1259" 
d="M684 984l64 -71l-231 -160l-25 27zM1038 72q0 28 -20.5 111.5t-54.5 162.5h-109v-258q0 -44 11 -54t60 -10v-24h-263v24q49 0 59.5 10t10.5 54v258h-149q-31 -103 -31 -258q0 -44 11 -54t60 -10v-24h-264v24q49 0 60 10t11 54q0 101 77 258h-253v-258q0 -44 11 -54
t60 -10v-24h-264v24q49 0 60 10t11 54v540q0 44 -11 54.5t-60 10.5v24h264v-24q-49 0 -60 -10.5t-11 -54.5v-257h265q86 167 222 321h-63v25h243v-25h-33q97 -109 169.5 -271t97.5 -302q1 -6 3.5 -23t4 -21.5t4.5 -16.5t7.5 -15.5t11.5 -9.5t17 -7.5t24 -1.5v-24h-263v24
q41 0 57.5 10.5t16.5 37.5zM765 665q-130 -167 -174 -294h361q-66 141 -187 294z" />
    <glyph glyph-name="uni0469_acute" unicode="&#xe5ae;" horiz-adv-x="909" 
d="M509 815l64 -71l-231 -160l-25 27zM521 484q-109 -157 -150 -294h322q-60 150 -172 294zM351 286q64 112 148 226h133q74 -98 137.5 -240t95.5 -272h-115q-13 63 -49 166h-100v-166h-102v166h-135q-20 -80 -24 -166h-112q25 106 109 261h-156v-261h-102v512h102v-226h170
z" />
    <glyph glyph-name="uni046A_acute" unicode="&#xe5af;" horiz-adv-x="1035" 
d="M745 984l64 -71l-231 -160l-25 27zM457 346q-57 0 -99.5 -27.5t-63.5 -70.5t-30.5 -83t-9.5 -76q0 -44 11 -54.5t60 -10.5v-24h-264v24q10 0 17.5 0.5t14 0.5t10.5 2.5t7.5 2.5t6 5t4 6t3.5 8.5t2.5 10t2.5 13.5t3 16q9 46 21 82.5t36 75.5t57 64.5t85 42.5t118 17
l-243 346h620l-242 -346h1q67 0 119 -17t85 -42.5t57 -64.5t36 -75.5t21 -82.5t14 -53q10 -12 57 -12v-24h-263v24q48 0 59 10t11 55q0 28 -5 59t-19.5 67.5t-36 64.5t-58.5 47t-83 19v-258q0 -44 10.5 -54t59.5 -10v-24h-263v24q49 0 60 10t11 54v258zM574 400l205 292
h-408z" />
    <glyph glyph-name="uni046B_acute" unicode="&#xe5b0;" horiz-adv-x="739" 
d="M569 815l64 -71l-231 -160l-25 27zM319 286v2l-188 224h479l-188 -224v-2q252 -19 252 -286h-103q0 125 -43.5 188.5t-105.5 76.5v-265h-103v265q-62 -13 -105.5 -76.5t-43.5 -188.5h-102q0 80 21.5 137.5t60 87.5t79 43.5t90.5 17.5zM412 313l145 174h-292z" />
    </font>
</defs>
</svg>
